BitTorrentTracker PerecTracker.org
BitTorrentTracker PerecTracker.org
    
Регистрация  ·  Вход
 
 · 
Забыли пароль?

  • Напролом / The Hard Way (Джон Бэдэм / John Badham) [1991, США, боевик, комедия, криминал, Blu-ray Disc 1080p] [EUR] Dub + Original Eng + Sub Eng, Rus

    Ответить на тему
     
    Автор Сообщение

    Flirldrerve

    Создавать темы 01-Окт-2015 16:08

           

    [Цитировать]

    Напролом / The Hard Way
    «Наши стволы без дела не болтаются!»
    Год выпуска: 1991
    Страна: США
    Производство: The Badham-Cohen Group, Universal Pictures
    Жанр: Боевик, комедия, криминал
    Продолжительность: 01:50:44
    Перевод: Профессиональный (дублированный)
    Оригинальная аудиодорожка: Английский
    Субтитры: Английские, испанские, французские, португальские, немецкие, итальянские, японские, польские, арабские, китайские, чешские, датские, голландские, финские, греческие, хинди, венгерские, корейские, норвежские, шведские, тайские, турецкие, русские
    Режиссёр: Джон Бэдэм
    В ролях: Майкл Дж. Фокс, Джеймс Вудс, Стивен Лэнг, Аннабелла Шиорра, Джон Каподиче, Луис Гусман, ЭлЭл Кул Джей, Мэри Мара, Делрой Линдо, Конрад Робертс и др.
    Описание: Ник Лэнг — знаменитая голливудская звезда. У Ника есть лишь одна мечта — расстаться со своим имиджем «славного парня» и сыграть настоящего «крутого» героя. И тут, как раз кстати, возникает возможность исполнить роль отважного детектива. Чтобы как можно лучше узнать о своём новом персонаже, Лэнг отправляется в Нью-Йорк, где знакомится с бывалым сыщиком Джоном Моссом, который должен помочь ему освоить полицейские приёмы. Странная парочка отправляется на поиски самого настоящего серийного убийцы, терроризирующего весь город...


    Сэмпл
    Качество: Blu-ray Disc 1080p
    Формат: BDMV
    Видео: MPEG-4 AVC: 27988 kbps / 1080p / 23.976 fps / 16:9
    Аудио: English: DTS-HD MA / 2.0 / 48 kHz / 2135 kbps / 24-bit (DTS Core: 2.0 / 48 kHz / 1509 kbps / 24-bit) | Оригинальный
    Аудио: Spanish: DTS / 2.0 / 48 kHz / 768 kbps / 24-bit
    Аудио: French: DTS / 2.0 / 48 kHz / 768 kbps / 24-bit
    Аудио: Portuguese: DTS / 2.0 / 48 kHz / 448 kbps / 24-bit
    Аудио: Spanish: DTS / 2.0 / 48 kHz / 768 kbps / 24-bit
    Аудио: German: DTS / 2.0 / 48 kHz / 768 kbps / 24-bit
    Аудио: Italian: DTS / 2.0 / 48 kHz / 768 kbps / 24-bit
    Аудио: Japanese: DTS / 2.0 / 48 kHz / 448 kbps / 24-bit
    Аудио: Polish: DTS / 2.0 / 48 kHz / 768 kbps / 24-bit
    Аудио: Russian: DTS / 2.0 / 48 kHz / 768 kbps / 24-bit | Дубляж

    BDInfo

    Disc Title: THE_HARD_WAYDisc Size: 34 167 653 452 bytesProtection: AACSBD-Java: YesBDInfo: 0.5.8
    Notes:
    BDINFO HOME: Cinema Squid http://www.cinemasquid.com/blu-ray/tools/bdinfo
    INCLUDES FORUMS REPORT FOR: AVS Forum Blu-ray Audio and Video Specifications Thread http://www.avsforum.com/avs-vb/showthread.php?t=1155731
    ********************PLAYLIST: 00800.MPLS********************
    <--- BEGIN FORUMS PASTE --->
    Total   Video
    Title                                                           Codec   Length  Movie Size      Disc Size       Bitrate Bitrate Main Audio Track                          Secondary Audio Track
    -----                                                           ------  ------- --------------  --------------  ------- ------- ------------------                        ---------------------
    00800.MPLS                                                      AVC     1:50:44 33 312 288 768  34 167 653 452  40.11   27.99   DTS-HD Master 2.0 2135Kbps (48kHz/24-bit)
    DISC INFO:
    Disc Title:     THE_HARD_WAY
    Disc Size:      34 167 653 452 bytes
    Protection:     AACS
    BD-Java:        Yes
    BDInfo:         0.5.8
    PLAYLIST REPORT:
    Name:                   00800.MPLS
    Length:                 1:50:44.054 (h:m:s.ms)
    Size:                   33 312 288 768 bytes
    Total Bitrate:          40.11 Mbps
    VIDEO:
    Codec                   Bitrate             Description
    -----                   -------             -----------
    MPEG-4 AVC Video        27988 kbps          1080p / 23.976 fps / 16:9 / High Profile 4.1
    AUDIO:
    Codec                           Language        Bitrate         Description
    -----                           --------        -------         -----------
    DTS-HD Master Audio             English         2135 kbps       2.0 / 48 kHz / 2135 kbps / 24-bit (DTS Core: 2.0 / 48 kHz / 1509 kbps / 24-bit)
    DTS Audio                       Spanish         768 kbps        2.0 / 48 kHz / 768 kbps / 24-bit
    DTS Audio                       French          768 kbps        2.0 / 48 kHz / 768 kbps / 24-bit
    DTS Audio                       Portuguese      448 kbps        2.0 / 48 kHz / 448 kbps / 24-bit
    DTS Audio                       Spanish         768 kbps        2.0 / 48 kHz / 768 kbps / 24-bit
    DTS Audio                       German          768 kbps        2.0 / 48 kHz / 768 kbps / 24-bit
    DTS Audio                       Italian         768 kbps        2.0 / 48 kHz / 768 kbps / 24-bit
    DTS Audio                       Japanese        448 kbps        2.0 / 48 kHz / 448 kbps / 24-bit
    DTS Audio                       Polish          768 kbps        2.0 / 48 kHz / 768 kbps / 24-bit
    DTS Audio                       Russian         768 kbps        2.0 / 48 kHz / 768 kbps / 24-bit
    SUBTITLES:
    Codec                           Language        Bitrate         Description
    -----                           --------        -------         -----------
    Presentation Graphics           English         57.510 kbps
    Presentation Graphics           Spanish         39.123 kbps
    Presentation Graphics           French          43.236 kbps
    Presentation Graphics           Portuguese      44.903 kbps
    Presentation Graphics           Spanish         42.157 kbps
    Presentation Graphics           French          42.792 kbps
    Presentation Graphics           German          48.231 kbps
    Presentation Graphics           Italian         38.484 kbps
    Presentation Graphics           Japanese        23.049 kbps
    Presentation Graphics           Polish          39.877 kbps
    Presentation Graphics           Russian         42.534 kbps
    Presentation Graphics           Arabic          25.255 kbps
    Presentation Graphics           Chinese         33.711 kbps
    Presentation Graphics           Chinese         36.899 kbps
    Presentation Graphics           Czech           41.694 kbps
    Presentation Graphics           Danish          28.676 kbps
    Presentation Graphics           Dutch           29.960 kbps
    Presentation Graphics           Finnish         31.744 kbps
    Presentation Graphics           Greek           44.455 kbps
    Presentation Graphics           Hindi           36.136 kbps
    Presentation Graphics           Hungarian       40.329 kbps
    Presentation Graphics           Korean          30.366 kbps
    Presentation Graphics           Norwegian       28.154 kbps
    Presentation Graphics           Portuguese      45.729 kbps
    Presentation Graphics           Swedish         28.884 kbps
    Presentation Graphics           Thai            37.491 kbps
    Presentation Graphics           Turkish         46.276 kbps
    Presentation Graphics           Spanish         0.454 kbps
    Presentation Graphics           French          0.466 kbps
    Presentation Graphics           Portuguese      0.306 kbps
    Presentation Graphics           Japanese        3.480 kbps
    Presentation Graphics           Russian         0.552 kbps
    FILES:
    Name            Time In         Length          Size            Total Bitrate
    ----            -------         ------          ----            -------------
    00800.M2TS      0:00:00.000     1:50:44.054     33 312 288 768  40 111
    CHAPTERS:
    Number          Time In         Length          Avg Video Rate  Max 1-Sec Rate  Max 1-Sec Time  Max 5-Sec Rate  Max 5-Sec Time  Max 10Sec Rate  Max 10Sec Time  Avg Frame Size  Max Frame Size  Max Frame Time
    ------          -------         ------          --------------  --------------  --------------  --------------  --------------  --------------  --------------  --------------  --------------  --------------
    1               0:00:00.000     0:11:02.161     27 288 kbps     33 913 kbps     00:01:50.985    31 354 kbps     00:09:38.995    31 081 kbps     00:09:33.990    142 258 bytes   347 632 bytes   00:01:15.533
    2               0:11:02.161     0:05:24.574     29 535 kbps     32 135 kbps     00:14:50.014    31 022 kbps     00:14:46.135    30 901 kbps     00:13:09.413    153 981 bytes   272 782 bytes   00:13:22.176
    3               0:16:26.735     0:11:59.760     28 390 kbps     31 851 kbps     00:27:46.081    30 964 kbps     00:26:06.106    30 892 kbps     00:27:37.072    148 011 bytes   314 076 bytes   00:27:09.628
    4               0:28:26.496     0:11:19.595     28 388 kbps     32 573 kbps     00:37:25.993    31 181 kbps     00:30:19.275    30 945 kbps     00:34:48.711    148 004 bytes   374 780 bytes   00:30:25.240
    5               0:39:46.092     0:09:17.014     26 969 kbps     32 392 kbps     00:41:38.537    30 965 kbps     00:39:57.520    30 866 kbps     00:39:52.515    140 606 bytes   329 642 bytes   00:41:39.497
    6               0:49:03.106     0:06:45.947     25 831 kbps     32 227 kbps     00:55:44.132    31 072 kbps     00:55:40.128    30 904 kbps     00:55:39.044    134 671 bytes   326 456 bytes   00:55:46.009
    7               0:55:49.054     0:09:34.782     30 388 kbps     32 056 kbps     00:57:59.184    31 133 kbps     01:01:35.650    30 937 kbps     01:01:19.342    158 427 bytes   335 867 bytes   00:58:00.101
    8               1:05:23.836     0:05:14.647     29 963 kbps     32 959 kbps     01:06:19.058    31 231 kbps     01:06:15.137    30 997 kbps     01:07:12.028    156 212 bytes   301 108 bytes   01:07:34.050
    9               1:10:38.484     0:09:02.208     26 867 kbps     33 763 kbps     01:15:53.924    31 018 kbps     01:17:56.004    30 897 kbps     01:17:50.874    140 073 bytes   298 402 bytes   01:15:54.508
    10              1:19:40.692     0:05:38.379     27 352 kbps     33 287 kbps     01:24:16.843    31 029 kbps     01:24:46.831    30 886 kbps     01:24:41.743    142 602 bytes   291 240 bytes   01:24:48.833
    11              1:25:19.072     0:05:26.242     26 934 kbps     32 820 kbps     01:27:15.104    31 033 kbps     01:29:39.248    30 899 kbps     01:25:25.453    140 424 bytes   323 420 bytes   01:28:41.816
    12              1:30:45.314     0:02:45.456     30 588 kbps     35 002 kbps     01:30:51.320    31 660 kbps     01:30:47.275    30 902 kbps     01:32:31.420    159 470 bytes   287 706 bytes   01:30:51.863
    13              1:33:30.771     0:05:00.925     28 861 kbps     31 861 kbps     01:36:17.229    30 981 kbps     01:36:13.225    30 867 kbps     01:38:04.628    150 470 bytes   298 422 bytes   01:36:18.230
    14              1:38:31.697     0:07:13.099     28 864 kbps     37 723 kbps     01:44:40.357    31 783 kbps     01:44:36.353    30 985 kbps     01:41:04.516    150 481 bytes   337 168 bytes   01:44:41.108
    15              1:45:44.796     0:01:32.217     26 964 kbps     32 018 kbps     01:45:49.551    31 025 kbps     01:45:45.547    30 839 kbps     01:46:01.104    140 578 bytes   270 785 bytes   01:45:53.847
    16              1:47:17.013     0:03:27.040     23 321 kbps     32 372 kbps     01:50:40.842    30 141 kbps     01:50:36.880    26 601 kbps     01:50:32.083    121 612 bytes   633 642 bytes   01:50:37.922
    <---- END FORUMS PASTE ---->
    ********************PLAYLIST: 00115.MPLS********************
    <--- BEGIN FORUMS PASTE --->
    Total   Video
    Title                                                           Codec   Length  Movie Size      Disc Size       Bitrate Bitrate Main Audio Track                          Secondary Audio Track
    -----                                                           ------  ------- --------------  --------------  ------- ------- ------------------                        ---------------------
    00115.MPLS                                                      MPEG-2  0:01:00 2 420 736       34 167 653 452  0.32    0.13
    DISC INFO:
    Disc Title:     THE_HARD_WAY
    Disc Size:      34 167 653 452 bytes
    Protection:     AACS
    BD-Java:        Yes
    BDInfo:         0.5.8
    PLAYLIST REPORT:
    Name:                   00115.MPLS
    Length:                 0:01:00.101 (h:m:s.ms)
    Size:                   2 420 736 bytes
    Total Bitrate:          0.32 Mbps
    VIDEO:
    Codec                   Bitrate             Description
    -----                   -------             -----------
    MPEG-2 Video            130 kbps            1080p / 23.976 fps / 16:9
    FILES:
    Name            Time In         Length          Size            Total Bitrate
    ----            -------         ------          ----            -------------
    00209.M2TS      0:00:00.000     0:00:10.010     310 656         124
    00209.M2TS      0:00:10.010     0:00:10.009     312 960         125
    00209.M2TS      0:00:20.020     0:00:10.010     282 240         113
    00209.M2TS      0:00:30.030     0:00:10.009     281 856         113
    00209.M2TS      0:00:40.040     0:00:10.009     340 608         136
    00209.M2TS      0:00:50.050     0:00:10.010     615 936         247
    00209.M2TS      0:01:00.060     0:00:00.041     276 480         53 028
    CHAPTERS:
    Number          Time In         Length          Avg Video Rate  Max 1-Sec Rate  Max 1-Sec Time  Max 5-Sec Rate  Max 5-Sec Time  Max 10Sec Rate  Max 10Sec Time  Avg Frame Size  Max Frame Size  Max Frame Time
    ------          -------         ------          --------------  --------------  --------------  --------------  --------------  --------------  --------------  --------------  --------------  --------------
    1               0:00:00.000     0:00:10.010     378 kbps        190 kbps        00:00:09.968    190 kbps        00:00:09.968    190 kbps        00:00:09.968    236 744 bytes   238 319 bytes   00:00:19.978
    2               0:00:10.010     0:00:10.009     167 kbps        167 kbps        00:00:19.978    167 kbps        00:00:19.978    167 kbps        00:00:19.978    208 546 bytes   208 546 bytes   00:00:29.988
    3               0:00:20.020     0:00:10.010     167 kbps        167 kbps        00:00:29.988    167 kbps        00:00:29.988    167 kbps        00:00:29.988    208 546 bytes   208 546 bytes   00:00:39.998
    4               0:00:30.030     0:00:10.009     211 kbps        211 kbps        00:00:39.998    211 kbps        00:00:39.998    211 kbps        00:00:39.998    264 381 bytes   264 381 bytes   00:00:50.008
    5               0:00:40.040     0:00:10.009     211 kbps        211 kbps        00:00:50.008    211 kbps        00:00:50.008    211 kbps        00:00:50.008    263 738 bytes   263 738 bytes   00:01:00.018
    6               0:00:50.050     0:00:10.051     4 380 kbps      420 kbps        00:00:39.956    420 kbps        00:00:39.956    420 kbps        00:00:39.956    250 156 bytes   264 381 bytes   00:00:50.008
    <---- END FORUMS PASTE ---->

    Скриншот с названием фильма

    Скриншоты

    Скачать .torrent

    Скачать торрент-файл бесплатно и на максимальной скорости!

    Как скачивать? · Что такое торрент? · Рейтинг и ограничения

    !ВНИМАНИЕ!
    Сайт не распространяет и не хранит электронные версии произведений, а занимается лишь лишь предоставлением доступа к создаваемому пользователями каталогу ссылок на торрент-файлы, которые содержат только списки хеш-сумм, убедительная просьба с жалобами обращаться напрямую к пользователю. Файлы для обмена на трекере предоставлены пользователями сайта, и администрация не несёт ответственности за их содержание. Просьба не заливать файлы, защищенные авторскими правами, а также файлы нелегального содержания!


    _________________
    [Профиль] [ЛС]
    Показать сообщения:    
    Ответить на тему

    Текущее время: Сегодня, в 19:23

    Часовой пояс: GMT + 2



    Вы не можете начинать темы
    Вы не можете отвечать на сообщения
    Вы не можете редактировать свои сообщения
    Вы не можете удалять свои сообщения
    Вы не можете голосовать в опросах
    Вы не можете прикреплять файлы к сообщениям
    Вы не можете скачивать файлы