BitTorrentTracker PerecTracker.org
BitTorrentTracker PerecTracker.org
    
Регистрация  ·  Вход
 
 · 
Забыли пароль?

  • Алоха / Aloha (Кэмерон Кроу / Cameron Crowe ) [2015, США, Драма, мелодрама, комедия, BDRip, SD (480p)] DUB + Original + sub (rus, ukr, eng)

    Ответить на тему
     
    Автор Сообщение

    rechyn

    Создавать темы 01-Окт-2015 16:08

           

    [Цитировать]

    Алоха / Aloha
    «Sometimes you have to say goodbye before you can say hello»
    6.100 / 10 5.50 / 10
    -Год выпуска: 2015
    Страна: США
    Жанр: Драма, мелодрама, комедия
    Продолжительность: 01:44:38
    Перевод: Дублированный (iTunes)
    Оригинальная аудиодорожка: Есть
    Cубтитры: Русские форсированные, Украинские форсированные, Русские, Украинские, Английские
    Режиссёр: Кэмерон Кроу
    Сценарий: Кэмерон Кроу
    Продюсер: Кэмерон Кроу, Скотт Рудин, Эли Буш
    Оператор: Эрик Готье
    Композитор: Йоун Тоур Биргиссон, Алекс Сомерс
    Художник: Клэй А. Гриффит, Питер Борк, Дебора Линн Скотт
    Монтаж: Джо Хатшинг
    В ролях: Брэдли Купер, Эмма Стоун, Рэйчел МакАдамс, Билл Мюррей, Джон Красински, Дэнни МакБрайд, Алек Болдуин, Билл Кэмп, Джейден Либерер, Даниэль Роуз Расселл
    Бюджет: $37 000 000
    Сборы в США: $21 067 116
    Сборы в мире: + $5 182 904 = $26 250 020
    Сборы в России:
    Мировая премьера: 27 мая 2015
    Премьера (РФ):
    Релиз на DVD:
    Релиз на Blu-Ray:
    Описание: 37-летний дискредитированный американский консультант по оружию Брайн Джилкрест не нравится практически всем окружающим его людям. Его единственный друг — техник по имени Джереми — супер умный и хорошо осведомленный компьютерщик.
    В ответ на агрессию со стороны Китая Джилкреста отправляют на бездействующую военную базу на Гавайях, чтобы оттуда он контролировал запуск современного спутника-шпиона. Это задание сведет его с девушкой по имени Трейси…-Качество исходника: BDRemux
    Качество: BDRip
    Тип: SD (480p)
    Контейнер: M4V
    Видео: H.264, 640x460 анаморф 852х460, 1.85:1, 1 500 Kbps, 23.976 fps
    Аудио 1: Русский/Дублированный (iTunes), AAC / 2.0 / 156 Kbps / 48.0 KHz
    Аудио 2: Английский/Оригинальная дорожка , AAC / 2.0 / 158 Kbps / 48.0 KHz
    Аудио 3: Украинский/Дублированный (iTunes), AAC / 2.0 / 157 Kbps / 48.0 KHz
    Аудио 4: Русский/Дублированный (iTunes), AC-3 / 5.1 / 384 Kbps / 48.0 KHz
    Аудио 5: Английский/Оригинальная дорожка , AC-3 / 5.1 / 640 Kbps / 48.0 KHz
    Субтитры 1: Русские форсированные
    Субтитры 2: Украинские форсированные
    Субтитры 3: Русские полные
    Субтитры 4: Украинские полные
    Субтитры 5: Английские полные
    -

    iTunes Meta Tags

    Sort Name: Aloha
    XID: Apple:vendor_id:2015-430568
    contentID: 993999211
    Screenwriters: Кэмерон Кроу
    Producers: Кэмерон Кроу, Скотт Рудин, Эли Буш
    Director: Кэмерон Кроу
    Cast: Брэдли Купер, Эмма Стоун, Рэйчел МакАдамс, Билл Мюррей, Джон Красински, Дэнни МакБрайд, Алек Болдуин, Билл Кэмп, Джейден Либерер, Даниэль Роуз Расселл
    Studio: Columbia Pictures
    Rating: 10
    Long Description: 37-летний дискредитированный американский консультант по оружию Брайн Джилкрест не нравится практически всем окружающим его людям. Его единственный друг - техник по имени Джереми - супер умный и хорошо осведомленный компьютерщик.
    В ответ на агрессию со стороны Китая Джилкреста отправляют на бездействующую военную базу на Гавайях, чтобы оттуда он контролировал запуск современного спутника-шпиона. Это задание сведет его с девушкой по имени Трейси...
    Description: 37-летний дискредитированный американский консультант по оружию Брайн Джилкрест не нравится практически всем окружающим его людям. Его единственный друг - техник по имени Джереми - супер умный и хорошо осведомленный компьютерщик.
    В ответ на агрессию со стороны Китая Джилкреста отправляют на бездействующую военную базу на Гавайях, чтобы оттуда он контролировал запуск современного спутника-шпиона. Это задание сведет его с девушкой по имени Трейси...
    Release Date: 2015-05-27T08:00:00Z
    Genre: Comedy
    Artist: Cameron Crowe
    Name: Aloha

    MediaInfo

    General
    Complete name : /Users/imac/HandBrake/Aloha.(480p).(pk).m4v
    Format : MPEG-4
    Codec ID : M4V
    File size : 2.20 GiB
    Duration : 1h 44mn
    Overall bit rate mode : Variable
    Overall bit rate : 3 004 Kbps
    Movie name : Aloha
    Performer : Cameron Crowe
    Director : Кэмерон Кроу
    Actor : Брэдли Купер / Эмма Стоун / Рэйчел МакАдамс / Билл Мюррей / Джон Красински / Дэнни МакБрайд / Алек Болдуин / Билл Кэмп / Джейден Либерер / Даниэль Роуз Расселл
    Screenplay by : Кэмерон Кроу
    Producer : Кэмерон Кроу / Скотт Рудин / Эли Буш
    Production studio : Columbia Pictures
    Genre : Comedy
    ContentType : Short Film
    Description : 37-летний дискредитированный американский консультант по оружию Брайн Джилкрест не нравится практически всем окружающим его людям. Его единственный друг - техник по имени Джереми - супер умный и хорошо осведомленный компьютерщик. / В ответ на агрессию со стороны Китая Джилкреста отправляют на бездействующую военную базу на Гавайях, чтобы оттуда он контролировал запуск современного спутника-шпиона. Это задание сведет его с девушкой по имени Трейси...
    Recorded date : UTC 2015-05-27 08:00:00
    Encoded date : UTC 2015-10-01 09:10:36
    Tagged date : UTC 2015-10-01 09:13:19
    Cover : Yes
    Rating : None
    Title/Sort : Aloha
    LongDescription : 37-летний дискредитированный американский консультант по оружию Брайн Джилкрест не нравится практически всем окружающим его людям. Его единственный друг - техник по имени Джереми - супер умный и хорошо осведомленный компьютерщик. / В ответ на агрессию со стороны Китая Джилкреста отправляют на бездействующую военную базу на Гавайях, чтобы оттуда он контролировал запуск современного спутника-шпиона. Это задание сведет его с девушкой по имени Трейси...
    AppleStoreCatalogID : 993999211
    Vendor : Apple:vendor_id:2015-430568
    ContentRating : mpaa|PG-13|300|
    Video #1
    ID : 1
    Format : AVC
    Format/Info : Advanced Video Codec
    Format profile : Baseline@L3
    Format settings, CABAC : No
    Format settings, ReFrames : 2 frames
    Codec ID : avc1
    Codec ID/Info : Advanced Video Coding
    Duration : 1h 44mn
    Bit rate : 1 500 Kbps
    Width : 640 pixels
    Height : 460 pixels
    Display aspect ratio : 1.85:1
    Frame rate mode : Variable
    Frame rate : 23.976 fps
    Minimum frame rate : 23.974 fps
    Maximum frame rate : 23.981 fps
    Color space : YUV
    Chroma subsampling : 4:2:0
    Bit depth : 8 bits
    Scan type : Progressive
    Bits/(Pixel*Frame) : 0.213
    Stream size : 1.10 GiB (50%)
    Title : Main Program
    Writing library : x264 core 142 r2479 dd79a61
    Encoding settings : cabac=0 / ref=2 / deblock=1:0:0 / analyse=0x1:0x111 / me=umh / subme=6 / psy=1 / psy_rd=1.00:0.00 / mixed_ref=1 / me_range=16 / chroma_me=1 / trellis=0 / 8x8dct=0 / cqm=0 / deadzone=21,11 / fast_pskip=1 / chroma_qp_offset=-2 / threads=36 / lookahead_threads=3 / sliced_threads=0 / nr=0 / decimate=1 / interlaced=0 / bluray_compat=0 / constrained_intra=0 / bframes=0 / weightp=0 / keyint=240 / keyint_min=24 / scenecut=40 / intra_refresh=0 / rc_lookahead=40 / rc=2pass / mbtree=1 / bitrate=1500 / ratetol=1.0 / qcomp=0.60 / qpmin=0 / qpmax=69 / qpstep=4 / cplxblur=20.0 / qblur=0.5 / vbv_maxrate=5000 / vbv_bufsize=5000 / nal_hrd=none / filler=0 / ip_ratio=1.40 / aq=1:1.00
    Language : English
    Encoded date : UTC 2015-10-01 09:10:36
    Tagged date : UTC 2015-10-01 09:10:39
    Color range : Limited
    Color primaries : BT.709
    Transfer characteristics : BT.709
    Matrix coefficients : BT.709
    Video #2
    ID : 13
    Format : JPEG
    Codec ID : jpeg
    Duration : 1h 44mn
    Bit rate mode : Variable
    Bit rate : 1 184 bps
    Width : 640 pixels
    Height : 345 pixels
    Display aspect ratio : 1.85:1
    Frame rate mode : Variable
    Frame rate : 0.003 fps
    Minimum frame rate : 0.002 fps
    Maximum frame rate : 0.004 fps
    Color space : YUV
    Chroma subsampling : 4:2:0
    Bit depth : 8 bits
    Compression mode : Lossy
    Bits/(Pixel*Frame) : 1.787
    Stream size : 771 KiB (0%)
    Language : English
    Encoded date : UTC 2015-10-01 09:11:29
    Tagged date : UTC 2015-10-01 09:11:29
    Audio #1
    ID : 2
    Format : AAC
    Format/Info : Advanced Audio Codec
    Format profile : LC
    Codec ID : 40
    Duration : 1h 44mn
    Bit rate mode : Variable
    Bit rate : 156 Kbps
    Maximum bit rate : 232 Kbps
    Channel(s) : 2 channels
    Channel positions : Front: L R
    Sampling rate : 48.0 KHz
    Compression mode : Lossy
    Stream size : 117 MiB (5%)
    Title : Russian Stereo
    Language : Russian
    Encoded date : UTC 2015-10-01 09:10:36
    Tagged date : UTC 2015-10-01 09:11:26
    Audio #2
    ID : 3
    Format : AAC
    Format/Info : Advanced Audio Codec
    Format profile : LC
    Codec ID : 40
    Duration : 1h 44mn
    Bit rate mode : Variable
    Bit rate : 158 Kbps
    Maximum bit rate : 237 Kbps
    Channel(s) : 2 channels
    Channel positions : Front: L R
    Sampling rate : 48.0 KHz
    Compression mode : Lossy
    Stream size : 118 MiB (5%)
    Title : English Stereo
    Language : English
    Encoded date : UTC 2015-10-01 09:10:36
    Tagged date : UTC 2015-10-01 09:11:26
    Audio #3
    ID : 4
    Format : AAC
    Format/Info : Advanced Audio Codec
    Format profile : LC
    Codec ID : 40
    Duration : 1h 44mn
    Bit rate mode : Variable
    Bit rate : 157 Kbps
    Maximum bit rate : 248 Kbps
    Channel(s) : 2 channels
    Channel positions : Front: L R
    Sampling rate : 48.0 KHz
    Compression mode : Lossy
    Stream size : 118 MiB (5%)
    Title : Ukrainian Stereo
    Language : Ukrainian
    Encoded date : UTC 2015-10-01 09:10:36
    Tagged date : UTC 2015-10-01 09:11:26
    Audio #4
    ID : 5
    Format : AC-3
    Format/Info : Audio Coding 3
    Mode extension : CM (complete main)
    Format settings, Endianness : Big
    Codec ID : ac-3
    Duration : 1h 44mn
    Bit rate mode : Constant
    Bit rate : 384 Kbps
    Channel(s) : 6 channels
    Channel positions : Front: L C R, Side: L R, LFE
    Sampling rate : 48.0 KHz
    Bit depth : 16 bits
    Compression mode : Lossy
    Stream size : 287 MiB (13%)
    Title : Russian DD 5.1
    Language : Russian
    Encoded date : UTC 2015-10-01 09:10:36
    Tagged date : UTC 2015-10-01 09:11:26
    Audio #5
    ID : 6
    Format : AC-3
    Format/Info : Audio Coding 3
    Mode extension : CM (complete main)
    Format settings, Endianness : Big
    Codec ID : ac-3
    Duration : 1h 44mn
    Bit rate mode : Constant
    Bit rate : 640 Kbps
    Channel(s) : 6 channels
    Channel positions : Front: L C R, Side: L R, LFE
    Sampling rate : 48.0 KHz
    Bit depth : 16 bits
    Compression mode : Lossy
    Stream size : 479 MiB (21%)
    Title : English DD 5.1
    Language : English
    Encoded date : UTC 2015-10-01 09:10:36
    Tagged date : UTC 2015-10-01 09:11:26
    Text #1
    ID : 7
    Format : Timed Text
    Muxing mode : sbtl
    Codec ID : tx3g
    Duration : 1h 44mn
    Bit rate mode : Variable
    Bit rate : 1 bps
    Stream size : 520 Bytes (0%)
    Title : Russian forced
    Language : Russian
    Encoded date : UTC 2015-10-01 09:10:36
    Tagged date : UTC 2015-10-01 09:11:21
    Text #2
    ID : 8
    Format : Timed Text
    Muxing mode : sbtl
    Codec ID : tx3g
    Duration : 1h 44mn
    Bit rate mode : Variable
    Bit rate : 1 bps
    Stream size : 473 Bytes (0%)
    Title : Ukrainian forced
    Language : Ukrainian
    Encoded date : UTC 2015-10-01 09:10:36
    Tagged date : UTC 2015-10-01 09:11:26
    Text #3
    ID : 9
    Format : Timed Text
    Muxing mode : sbtl
    Codec ID : tx3g
    Duration : 1h 44mn
    Bit rate mode : Variable
    Bit rate : 107 bps
    Stream size : 81.7 KiB (0%)
    Title : Russian full
    Language : Russian
    Encoded date : UTC 2015-10-01 09:10:36
    Tagged date : UTC 2015-10-01 09:11:24
    Text #4
    ID : 10
    Format : Timed Text
    Muxing mode : sbtl
    Codec ID : tx3g
    Duration : 1h 44mn
    Bit rate mode : Variable
    Bit rate : 111 bps
    Stream size : 84.7 KiB (0%)
    Title : Ukranian full
    Language : Ukrainian
    Encoded date : UTC 2015-10-01 09:10:36
    Tagged date : UTC 2015-10-01 09:11:26
    Text #5
    ID : 11
    Format : Timed Text
    Muxing mode : sbtl
    Codec ID : tx3g
    Duration : 1h 44mn
    Bit rate mode : Variable
    Bit rate : 113 bps
    Stream size : 86.1 KiB (0%)
    Title : English full
    Language : English
    Encoded date : UTC 2015-10-01 09:10:36
    Tagged date : UTC 2015-10-01 09:11:26
    Menu #1
    00:00:00.000 : Chapter 1
    00:04:42.616 : Chapter 2
    00:10:59.200 : Chapter 3
    00:20:02.493 : Chapter 4
    00:27:07.751 : Chapter 5
    00:33:25.629 : Chapter 6
    00:40:01.733 : Chapter 7
    00:46:40.339 : Chapter 8
    00:51:31.964 : Chapter 9
    00:56:21.670 : Chapter 10
    01:05:07.946 : Chapter 11
    01:11:08.347 : Chapter 12
    01:18:43.677 : Chapter 13
    01:25:36.340 : Chapter 14
    01:31:43.331 : Chapter 15
    01:36:28.950 : Chapter 16
    Menu #2
    ID : 12
    Codec ID : text
    Duration : 1h 44mn
    Language : English
    Encoded date : UTC 2015-10-01 09:11:26
    Tagged date : UTC 2015-10-01 09:11:26
    00:00:00.000 : Chapter 1
    00:04:42.616 : Chapter 2
    00:10:59.200 : Chapter 3
    00:20:02.493 : Chapter 4
    00:27:07.751 : Chapter 5
    00:33:25.629 : Chapter 6
    00:40:01.733 : Chapter 7
    00:46:40.339 : Chapter 8
    00:51:31.964 : Chapter 9
    00:56:21.670 : Chapter 10
    01:05:07.946 : Chapter 11
    01:11:08.347 : Chapter 12
    01:18:43.677 : Chapter 13
    01:25:36.340 : Chapter 14
    01:31:43.331 : Chapter 15
    01:36:28.950 : Chapter 16
    Bit rate mode : VBR

    x264 лог

    x264 [info]: frame I:1964  Avg QP:16.56  size: 39728
    x264 [info]: frame P:148564 Avg QP:19.34  size:  7392
    x264 [info]: mb I  I16..4: 17.5%  0.0% 82.5%
    x264 [info]: mb P  I16..4:  0.5%  0.0%  1.6%  P16..4: 47.8% 20.8%  8.7%  0.0%  0.0%    skip:20.6%
    x264 [info]: coded y,uvDC,uvAC intra: 81.1% 81.9% 61.2% inter: 24.9% 21.4% 4.2%
    x264 [info]: i16 v,h,dc,p: 36% 15%  8% 41%
    x264 [info]: i4 v,h,dc,ddl,ddr,vr,hd,vl,hu: 27% 15% 14%  7%  8% 10%  7%  8%  5%
    x264 [info]: i8c dc,h,v,p: 49% 15% 25% 10%
    x264 [info]: ref P L0: 71.5% 28.5%
    x264 [info]: kb/s:1498.78

    Скриншоты

    -

    Релиз подготовлен для просмотра на Apple TV, iPad, iPhone, iPod Touch.
    Для просмотра данного релиза на компьютере с ОС Windows рекомендуется использовать VLC media player
    Скачать .torrent

    Скачать торрент-файл бесплатно и на максимальной скорости!

    Как скачивать? · Что такое торрент? · Рейтинг и ограничения

    !ВНИМАНИЕ!
    Сайт не распространяет и не хранит электронные версии произведений, а занимается лишь лишь предоставлением доступа к создаваемому пользователями каталогу ссылок на торрент-файлы, которые содержат только списки хеш-сумм, убедительная просьба с жалобами обращаться напрямую к пользователю. Файлы для обмена на трекере предоставлены пользователями сайта, и администрация не несёт ответственности за их содержание. Просьба не заливать файлы, защищенные авторскими правами, а также файлы нелегального содержания!


    _________________
    [Профиль] [ЛС]
    Показать сообщения:    
    Ответить на тему

    Текущее время: Сегодня, в 12:54

    Часовой пояс: GMT + 2



    Вы не можете начинать темы
    Вы не можете отвечать на сообщения
    Вы не можете редактировать свои сообщения
    Вы не можете удалять свои сообщения
    Вы не можете голосовать в опросах
    Вы не можете прикреплять файлы к сообщениям
    Вы не можете скачивать файлы