BitTorrentTracker PerecTracker.org
BitTorrentTracker PerecTracker.org
    
Регистрация  ·  Вход
 
 · 
Забыли пароль?

  • Последняя смена / Last Shift (Энтони ДиБлази / Anthony DiBlasi) [2014, США, ужасы, триллер, HDRip] VO (Хихикающий доктор)

    Ответить на тему
     
    Автор Сообщение

    Light

    Создавать темы 01-Окт-2015 11:56

           

    [Цитировать]

    Последняя смена / Last Shift
    Страна: США
    Жанр: ужасы, триллер
    Год выпуска: 2014
    Продолжительность: 01:27:33
    Перевод: Одноголосый закадровый Хихикающий доктор
    Cубтитры: нет
    Оригинальная аудиодорожка: нет
    Режиссер: Энтони ДиБлази / Anthony DiBlasi
    В ролях: Джулиана Харкви, Джошуа Микель, Дж. ЛаРоуз, Натали Виктория, Сара Скулко, Кэтрин Килгер, Мэри Лэнкфорд Пойли, Джереми С. Брок, Аманда Дефранс, Мэтт Домэн
    Описание: Джессика Лорен, молоденькая и неопытная работница полиции. В таком статусе ей осталось быть совсем недолго – всего лишь одну ночь. Так уж вышло, что именно эта ночь выпала на её дежурство. Потом их полицейский участок закроют, а пока Джессика должна честно выполнять свой долг. Она не может покинуть место своего дежурства ни под каким предлогом, поскольку это её прямая обязанность. Однако на ночном дежурстве она узнаёт очень много нового о полицейском участке. Оказывается, это совершенно необычное место, в котором живёт воплощение дьявольского зла. У этого адского отродья есть свои последователи, и они постараются сделать всё возможное, чтобы превратить последнее дежурство Джессика Лорен в сущий кошмар. Сможет ли молодая и неопытная девушка выдержать испытание и остаться в живых?
    Сэмпл: http://multi-up.com/1068953
    Качество видео: HDRip (исходник не известен)
    Формат видео: AVI
    Видео: Xvid 720x304 23.98fps 1 908 Kbps
    Аудио: Dolby AC3 48000Hz 6ch 448kbps

    MediaInfo

    Format : AVI
    Format/Info : Audio Video Interleave
    File size : 1.45 GiB
    Duration : 1h 27mn
    Overall bit rate : 2 366 Kbps
    Writing application : VirtualDubMod 1.5.10.3 | www.virtualdub-fr.org || (build 2550/release)
    Writing library : VirtualDubMod build 2550/release
    Video
    ID : 0
    Format : MPEG-4 Visual
    Format profile : AdvancedSimple@L5
    Format settings, BVOP : Yes
    Format settings, QPel : No
    Format settings, GMC : No warppoints
    Format settings, Matrix : Custom
    Codec ID : XVID
    Codec ID/Hint : XviD
    Duration : 1h 27mn
    Bit rate : 1 908 Kbps
    Width : 720 pixels
    Height : 304 pixels
    Display aspect ratio : 2.35:1
    Frame rate : 23.976 fps
    Resolution : 24 bits
    Colorimetry : 4:2:0
    Scan type : Progressive
    Bits/(Pixel*Frame) : 0.364
    Stream size : 1.17 GiB (81%)
    Writing library : XviD 73
    Audio
    ID : 1
    Format : AC-3
    Format/Info : Audio Coding 3
    Codec ID : 2000
    Duration : 1h 27mn
    Bit rate mode : Constant
    Bit rate : 448 Kbps
    Channel(s) : 6 channels
    Channel positions : Front: L C R, Surround: L R, LFE
    Sampling rate : 48.0 KHz
    Stream size : 281 MiB (19%)
    Alignment : Split accross interleaves
    Interleave, duration : 42 ms (1.00 video frame)
    Interleave, preload duration : 500 ms

    Скриншот c названием фильма

    Скриншоты

    Скачать .torrent

    Скачать торрент-файл бесплатно и на максимальной скорости!

    Как скачивать? · Что такое торрент? · Рейтинг и ограничения

    !ВНИМАНИЕ!
    Сайт не распространяет и не хранит электронные версии произведений, а занимается лишь лишь предоставлением доступа к создаваемому пользователями каталогу ссылок на торрент-файлы, которые содержат только списки хеш-сумм, убедительная просьба с жалобами обращаться напрямую к пользователю. Файлы для обмена на трекере предоставлены пользователями сайта, и администрация не несёт ответственности за их содержание. Просьба не заливать файлы, защищенные авторскими правами, а также файлы нелегального содержания!


    _________________
    [Профиль] [ЛС]
    Показать сообщения:    
    Ответить на тему

    Текущее время: Сегодня, в 19:49

    Часовой пояс: GMT + 2



    Вы не можете начинать темы
    Вы не можете отвечать на сообщения
    Вы не можете редактировать свои сообщения
    Вы не можете удалять свои сообщения
    Вы не можете голосовать в опросах
    Вы не можете прикреплять файлы к сообщениям
    Вы не можете скачивать файлы