BitTorrentTracker PerecTracker.org
BitTorrentTracker PerecTracker.org
    
Регистрация  ·  Вход
 
 · 
Забыли пароль?

  • Нас венчали не в церкви (Борис Токарев) [1982, Мелодрама, история, SATRip-AVC]

    Ответить на тему
     
    Автор Сообщение

    Light

    Создавать темы 30-Сен-2015 19:08

           

    [Цитировать]

    -Нас венчали не в церкви-Жанр: Мелодрама, история
    Год выпуска: 1982
    Продолжительность: 01:21:29-Режиссёр: Борис Токарев-В ролях: Александр Галибин, Наталья Вавилова, Пётр Вельяминов, Людмила Гладунко, Алексей Жарков, Галина Польских, Борис Бачурин, Дмитрий Попов (II), Татьяна Ухарова, Владимир Кузнецов (XII), Иван Косых, Екатерина Дронова, Ольга Токарева, Юрий Соколов (VI), Валерий Фетисов, Валентин Брылеев, Владимир Кузнецов (V), Валентина Коротаева-Описание: Дочь священника фиктивно выходит замуж за революционера-народника. Молодежная коммуна организовала им свадьбу и устроила переезд в город. Со временем молодые люди полюбили друг друга. Когда его осуждают и отправляют на каторгу, она добровольно следует за ним…-Доп. информация:

    Сценаристы: Александр Свободин, Натан Эйдельман
    Оператор: Николай Немоляев
    Композитор: Исаак Шварц
    Художник: Леонид Свинцицкий-Семпл: https://yadi.sk/i/ccNDQufljRd7T-Качество видео: SATRip-AVC
    Формат видео: MKV
    Видео кодек: H.264
    Аудио кодек: AC3
    Видео: 688@750x320 анаморф (2,344:1), 25 fps, ~2192 kbps
    Аудио: 48 kHz, AC3 Dolby Digital, 2/0 (L,R) ch, ~192 kbps

    MediaInfo

    General
    Unique ID : 207607133544509210080088162828961685430 (0x9C2FADF4C5AD5915837CE75482279FB6)
    Complete name : C:\Torrent\Нас венчали не в церкви.1982.SATRip-AVC by Dmitrio7197\Нас венчали не в церкви.1982.SATRip-AVC by Dmitrio7197.mkv
    Format : Matroska
    Format version : Version 2
    File size : 1.36 GiB
    Duration : 1h 21mn
    Overall bit rate : 2 386 Kbps
    Encoded date : UTC 2015-09-30 03:07:48
    Writing application : mkvmerge v6.1.0 ('Old Devil') built on Mar 4 2013 09:10:42
    Writing library : libebml v1.3.0 + libmatroska v1.4.0
    Video
    ID : 1
    Format : AVC
    Format/Info : Advanced Video Codec
    Format profile : High@L4.1
    Format settings, CABAC : Yes
    Format settings, ReFrames : 8 frames
    Codec ID : V_MPEG4/ISO/AVC
    Duration : 1h 21mn
    Bit rate : 2 192 Kbps
    Width : 688 pixels
    Height : 320 pixels
    Display aspect ratio : 2.35:1
    Frame rate mode : Constant
    Frame rate : 25.000 fps
    Color space : YUV
    Chroma subsampling : 4:2:0
    Bit depth : 8 bits
    Scan type : Progressive
    Bits/(Pixel*Frame) : 0.398
    Stream size : 1.22 GiB (90%)
    Writing library : x264 core 130 r2273 b3065e6
    Encoding settings : cabac=1 / ref=8 / deblock=1:0:0 / analyse=0x3:0x113 / me=umh / subme=10 / psy=1 / psy_rd=1.00:0.00 / mixed_ref=1 / me_range=24 / chroma_me=1 / trellis=2 / 8x8dct=1 / cqm=0 / deadzone=21,11 / fast_pskip=1 / chroma_qp_offset=-2 / threads=6 / lookahead_threads=1 / sliced_threads=0 / nr=0 / decimate=0 / interlaced=0 / bluray_compat=0 / constrained_intra=0 / bframes=8 / b_pyramid=2 / b_adapt=1 / b_bias=0 / direct=3 / weightb=1 / open_gop=0 / weightp=2 / keyint=250 / keyint_min=25 / scenecut=40 / intra_refresh=0 / rc_lookahead=40 / rc=2pass / mbtree=1 / bitrate=2192 / ratetol=1.0 / qcomp=0.60 / qpmin=0 / qpmax=69 / qpstep=4 / cplxblur=20.0 / qblur=0.5 / ip_ratio=1.40 / aq=1:1.00
    Default : Yes
    Forced : No
    Audio
    ID : 2
    Format : AC-3
    Format/Info : Audio Coding 3
    Mode extension : CM (complete main)
    Format settings, Endianness : Big
    Codec ID : A_AC3
    Duration : 1h 21mn
    Bit rate mode : Constant
    Bit rate : 192 Kbps
    Channel(s) : 2 channels
    Channel positions : Front: L R
    Sampling rate : 48.0 KHz
    Bit depth : 16 bits
    Compression mode : Lossy
    Stream size : 112 MiB (8%)
    Default : Yes
    Forced : No

    Скриншоты

    -
    Скачать .torrent

    Скачать торрент-файл бесплатно и на максимальной скорости!

    Как скачивать? · Что такое торрент? · Рейтинг и ограничения

    !ВНИМАНИЕ!
    Сайт не распространяет и не хранит электронные версии произведений, а занимается лишь лишь предоставлением доступа к создаваемому пользователями каталогу ссылок на торрент-файлы, которые содержат только списки хеш-сумм, убедительная просьба с жалобами обращаться напрямую к пользователю. Файлы для обмена на трекере предоставлены пользователями сайта, и администрация не несёт ответственности за их содержание. Просьба не заливать файлы, защищенные авторскими правами, а также файлы нелегального содержания!


    _________________
    [Профиль] [ЛС]
    Показать сообщения:    
    Ответить на тему

    Текущее время: Сегодня, в 04:07

    Часовой пояс: GMT + 2



    Вы не можете начинать темы
    Вы не можете отвечать на сообщения
    Вы не можете редактировать свои сообщения
    Вы не можете удалять свои сообщения
    Вы не можете голосовать в опросах
    Вы не можете прикреплять файлы к сообщениям
    Вы не можете скачивать файлы