BitTorrentTracker PerecTracker.org
BitTorrentTracker PerecTracker.org
    
Регистрация  ·  Вход
 
 · 
Забыли пароль?

  • Нас венчали не в церкви (Борис Токарев) [1982, драма, DVB]

    Ответить на тему
     
    Автор Сообщение

    Light

    Создавать темы 30-Сен-2015 14:56

           

    [Цитировать]

    Нас венчали не в церкви
    Жанр: драма
    Год выпуска: 1982
    Продолжительность: 01:21:30
    Режиссёр: Борис Токарев
    В ролях: Александр Галибин, Наталья Вавилова, Пётр Вельяминов, Людмила Гладунко, Алексей Жарков, Галина Польских, Борис Бачурин, Дмитрий Попов (II), Татьяна Ухарова, В. Кузнецов, Иван Косых, Екатерина Дронова, Ольга Токарева, Юрий Соколов, Валерий Фетисов, Валентин Брылеев, Валерий Шаврин, Владимир Кузнецов, Валентина Каратаева
    Описание: Дочь священника, желая вырваться из гнетущей обстановки, выходит фиктивно замуж за революционера-народника и поэта.
    Доп. информация: Запись потока *.ts со спутника Экспресс АМ7, 40° в.д., ремукс в *.mkv программой VideoReDo.
    Качество видео: DVB
    Формат видео: MKV
    Видео: MPEG2 Video, 720(768)x576 (4:3), 25,000 кадров/сек, 5249 Кбит/сек
    Аудио: MPEG Audio, 48,0 КГц, 256 Кбит/сек, 2 канала

    MediaInfo

    Общее
    Уникальный идентификатор : 225126851777160647998328887865966976953 (0xA95DDAC151DE696D3BB8AC49441DDFB9)
    Полное имя : D:\MPG\НАС ВЕНЧАЛИ НЕ В ЦЕРКВИ (Kultura 40).mkv
    Формат : Matroska
    Версия формата : Version 2
    Размер файла : 3,20 Гбайт
    Продолжительность : 1 ч. 21 м.
    Режим общего битрейта : Переменный
    Общий поток : 5617 Кбит/сек
    Программа кодирования : Lavf52.64.2
    Библиотека кодирования : Lavf52.64.2
    Видео
    Идентификатор : 1
    Формат : MPEG Video
    Версия формата : Version 2
    Профиль формата : Main@Main
    Параметр BVOP формата : Нет
    Параметр матрицы формата : Выборочная
    Идентификатор кодека : V_MPEG2
    Идентификатор кодека/Информация : MPEG 1 or 2 Video
    Продолжительность : 1 ч. 21 м.
    Вид битрейта : Переменный
    Битрейт : 5249 Кбит/сек
    Максимальный битрейт : 15,0 Мбит/сек
    Ширина : 720 пикселей
    Высота : 576 пикселей
    Соотношение сторон : 4:3
    Соотношение сторон в оригинале : 4:3
    Режим частоты кадров : Постоянный
    Частота кадров : 25,000 кадров/сек
    Стандарт вещания : PAL
    Цветовое пространство : YUV
    Субдискретизация насыщенности : 4:2:0
    Битовая глубина : 8 бит
    Тип развёртки : Чересстрочная
    Порядок развёртки : Верхнее поле первое
    Метод сжатия : С потерями
    Бит/(Пиксели*Кадры) : 0.506
    Временной код первого кадра : 00:00:00:00
    Оригинал временного кода : Group of pictures header
    Размер потока : 2,99 Гбайт (93%)
    Default : Да
    Forced : Нет
    Аудио
    Идентификатор : 2
    Формат : MPEG Audio
    Версия формата : Version 1
    Профиль формата : Layer 2
    Идентификатор кодека : A_MPEG/L2
    Идентификатор кодека/Подсказка : MP2
    Продолжительность : 1 ч. 21 м.
    Вид битрейта : Постоянный
    Битрейт : 256 Кбит/сек
    Каналы : 2 канала
    Частота : 48,0 КГц
    Метод сжатия : С потерями
    Задержка видео : -1 м. 5 с.
    Размер потока : 149 Мбайт (5%)
    Язык : English
    Default : Да
    Forced : Нет

    Скриншоты

    Скачать .torrent

    Скачать торрент-файл бесплатно и на максимальной скорости!

    Как скачивать? · Что такое торрент? · Рейтинг и ограничения

    !ВНИМАНИЕ!
    Сайт не распространяет и не хранит электронные версии произведений, а занимается лишь лишь предоставлением доступа к создаваемому пользователями каталогу ссылок на торрент-файлы, которые содержат только списки хеш-сумм, убедительная просьба с жалобами обращаться напрямую к пользователю. Файлы для обмена на трекере предоставлены пользователями сайта, и администрация не несёт ответственности за их содержание. Просьба не заливать файлы, защищенные авторскими правами, а также файлы нелегального содержания!


    _________________
    [Профиль] [ЛС]
    Показать сообщения:    
    Ответить на тему

    Текущее время: Сегодня, в 06:36

    Часовой пояс: GMT + 2



    Вы не можете начинать темы
    Вы не можете отвечать на сообщения
    Вы не можете редактировать свои сообщения
    Вы не можете удалять свои сообщения
    Вы не можете голосовать в опросах
    Вы не можете прикреплять файлы к сообщениям
    Вы не можете скачивать файлы