BitTorrentTracker PerecTracker.org
BitTorrentTracker PerecTracker.org
    
Регистрация  ·  Вход
 
 · 
Забыли пароль?

  • Ангелы буднего дня / Andele vsedniho dne (Алиция Неллис / Alice Nellis) [2014, Чехия, комедия, драма, DVDRip-AVC] VO (Kass) + Original Cze

    Ответить на тему
     
    Автор Сообщение

    Light

    Создавать темы 30-Сен-2015 10:44

           

    [Цитировать]

    Ангелы буднего дня / Andele vsedniho dne
    Страна: Чехия
    Жанр: комедия, драма
    Год выпуска: 2014
    Продолжительность: 01:31:49
    Перевод: Одноголосый закадровый (женский) Kass
    Cубтитры: нет
    Оригинальная аудиодорожка: чешский
    Режиссер: Алиция Неллис / Alice Nellis
    В ролях: Мариан Лабуда ст. / Marian Labuda st., Войтех Дик / Vojtech Dyk, Владимир Яворский / Vladimir Javorsky, Элишка Кренкова / Eliska Krenkova, Болек Поливка / Bolek Polivka, Клара Мелишкова / Klara Meliskova, Зузана Биджовска / Zuzana Bydzovska, Вацлав Неужил мл. / Vaclav Neuzil ml., Зузана Кронерова / Zuzana Kronerova, Ондрей Сокол / Ondrej Sokol, Йозеф Кун / Josef Kuhn, Павел Гайдош / Pavel Gajdos, Ванда Конечна / Vanda Konecna, Сабина Ремундова / Sabina Remundova
    Описание: Фильм с довольно жесткой задумкой: об ангелах невысокого ранга, занятых на обыденной работе - скрашивать последний день людям, у которых не удалась жизнь. Чтобы хоть после смерти о них вспоминали с теплом. Исполнять их сокровенные желания, порой такие, что мало не покажется. Работа трудная, но она окупается, меняя к лучшему как участь живых, так и мертвых.
    На этот раз послана целая группа, которую один из них (Войтех Дык великолепен в роли Иофаниеля!) с иронией называет «похоронной командой». Что называется, трудный случай - 27-летний брак, где у людей давно нет ничего общего.
    При эдакой-то теме в фильме много юмора и позитива более чем достаточно.
    Доп. информация: Исходник - http://perectracker.org/viewtopic.php?t=5087250
    Сэмпл: http://multi-up.com/1068607
    Качество видео: DVDRip-AVC
    Формат видео: MKV
    Видео: H.264, 720x432, 25,000 fps, 2000 kbps
    Аудио 1: Русский (Dolby AC3, 6 ch) 448 Кбит/сек, 48,0 КГц
    Аудио 2: Cesky (Dolby AC3, 6 ch) 448 Кбит/сек, 48,0 КГц

    MediaInfo

    General
    Unique ID : 141760176867506487613817580768837545709 (0x6AA604572AF98F727E0B7F7CEC94AEED)
    Complete name : C:\Downloads\Andele.vsedniho.dne.2014.DVDrip.RusVO+Cze\Andele.vsedniho.dne.2014.DVDrip.RusVO+Cze.mkv
    Format : Matroska
    Format version : Version 2
    File size : 1.86 GiB
    Duration : 1h 31mn
    Overall bit rate : 2 901 Kbps
    Encoded date : UTC
    Writing application : HandBrake 0.10.2 2015060900
    Writing library : Lavf55.12.0
    Video
    ID : 1
    Format : AVC
    Format/Info : Advanced Video Codec
    Format profile : Main@L4
    Format settings, CABAC : Yes
    Format settings, ReFrames : 7 frames
    Codec ID : V_MPEG4/ISO/AVC
    Duration : 1h 31mn
    Bit rate : 2 000 Kbps
    Width : 720 pixels
    Height : 432 pixels
    Display aspect ratio : 2.40:1
    Original display aspect ratio : 2.40:1
    Frame rate mode : Constant
    Frame rate : 25.000 fps
    Color space : YUV
    Chroma subsampling : 4:2:0
    Bit depth : 8 bits
    Scan type : Progressive
    Bits/(Pixel*Frame) : 0.257
    Stream size : 1.25 GiB (67%)
    Writing library : x264 core 142 r2479 dd79a61
    Encoding settings : cabac=1 / ref=7 / deblock=1:-1:-1 / analyse=0x1:0x111 / me=umh / subme=9 / psy=1 / psy_rd=1.00:0.15 / mixed_ref=0 / me_range=24 / chroma_me=1 / trellis=0 / 8x8dct=0 / cqm=0 / deadzone=21,11 / fast_pskip=1 / chroma_qp_offset=-2 / threads=12 / lookahead_threads=1 / sliced_threads=0 / nr=0 / decimate=1 / interlaced=0 / bluray_compat=0 / constrained_intra=0 / bframes=16 / b_pyramid=2 / b_adapt=1 / b_bias=0 / direct=1 / weightb=1 / open_gop=0 / weightp=1 / keyint=250 / keyint_min=25 / scenecut=40 / intra_refresh=0 / rc_lookahead=10 / rc=2pass / mbtree=1 / bitrate=2000 / ratetol=1.0 / qcomp=0.60 / qpmin=0 / qpmax=69 / qpstep=4 / cplxblur=20.0 / qblur=0.5 / vbv_maxrate=20000 / vbv_bufsize=25000 / nal_hrd=none / filler=0 / ip_ratio=1.40 / aq=1:1.00
    Default : Yes
    Forced : No
    Color range : Limited
    Color primaries : BT.601 PAL
    Transfer characteristics : BT.709
    Matrix coefficients : BT.601
    Audio #1
    ID : 2
    Format : AC-3
    Format/Info : Audio Coding 3
    Mode extension : CM (complete main)
    Format settings, Endianness : Big
    Codec ID : A_AC3
    Duration : 1h 31mn
    Bit rate mode : Constant
    Bit rate : 448 Kbps
    Channel(s) : 6 channels
    Channel positions : Front: L C R, Side: L R, LFE
    Sampling rate : 48.0 KHz
    Compression mode : Lossy
    Stream size : 294 MiB (15%)
    Title : Surround
    Language : Russian
    Default : Yes
    Forced : No
    Audio #2
    ID : 3
    Format : AC-3
    Format/Info : Audio Coding 3
    Mode extension : CM (complete main)
    Format settings, Endianness : Big
    Codec ID : A_AC3
    Duration : 1h 31mn
    Bit rate mode : Constant
    Bit rate : 448 Kbps
    Channel(s) : 6 channels
    Channel positions : Front: L C R, Side: L R, LFE
    Sampling rate : 48.0 KHz
    Compression mode : Lossy
    Stream size : 294 MiB (15%)
    Title : Surround
    Language : Czech
    Default : No
    Forced : No
    Menu
    00:00:00.000 : :Chapter 1
    00:05:08.720 : :Chapter 2
    00:10:53.880 : :Chapter 3
    00:16:03.720 : :Chapter 4
    00:27:00.480 : :Chapter 5
    00:37:52.080 : :Chapter 6
    00:43:15.160 : :Chapter 7
    00:54:16.040 : :Chapter 8
    01:02:01.600 : :Chapter 9
    01:09:47.120 : :Chapter 10
    01:16:15.360 : :Chapter 11
    01:24:24.680 : :Chapter 12

    Скриншот c названием фильма

    Скриншоты

    Скачать .torrent

    Скачать торрент-файл бесплатно и на максимальной скорости!

    Как скачивать? · Что такое торрент? · Рейтинг и ограничения

    !ВНИМАНИЕ!
    Сайт не распространяет и не хранит электронные версии произведений, а занимается лишь лишь предоставлением доступа к создаваемому пользователями каталогу ссылок на торрент-файлы, которые содержат только списки хеш-сумм, убедительная просьба с жалобами обращаться напрямую к пользователю. Файлы для обмена на трекере предоставлены пользователями сайта, и администрация не несёт ответственности за их содержание. Просьба не заливать файлы, защищенные авторскими правами, а также файлы нелегального содержания!


    _________________
    [Профиль] [ЛС]

    -746

    Создавать темы 30-Сен-2015 11:24 (спустя 40 минут)

           

    Топик был перенесен из форума Фильмы 2011-2014 в форум Зарубежное кино (DVD)

    Fisher

    _________________
    Как бы ты высоко не летал, не забывай, с кем ты ползал..
     
    Показать сообщения:    
    Ответить на тему

    Текущее время: Сегодня, в 10:54

    Часовой пояс: GMT + 2



    Вы не можете начинать темы
    Вы не можете отвечать на сообщения
    Вы не можете редактировать свои сообщения
    Вы не можете удалять свои сообщения
    Вы не можете голосовать в опросах
    Вы не можете прикреплять файлы к сообщениям
    Вы не можете скачивать файлы