BitTorrentTracker PerecTracker.org
BitTorrentTracker PerecTracker.org
    
Регистрация  ·  Вход
 
 · 
Забыли пароль?

  • Уровень моря / Deniz Seviyesi / Across the Sea (Нисан Даг / Nisan Dag, Эсра Сайдам / Esra Saydam) [2014, Турция, Мелодрама, драма, WEBRip] Sub Rus

    Ответить на тему
     
    Автор Сообщение

    Light

    Создавать темы 30-Сен-2015 10:44

           

    [Цитировать]

    Уровень моря / Deniz Seviyesi / Across the Sea
    Страна: США, Турция, Dodgeville Films, Karlakum Film, Sand & Snow Films
    Жанр: Мелодрама, драма
    Год выпуска: 2014
    Продолжительность: 01:38:49
    Перевод: Субтитры
    Cубтитры: русские
    Оригинальная аудиодорожка: Турецкий
    Режиссер: Нисан Даг / Nisan Dag, Эсра Сайдам / Esra Saydam
    В ролях:
    Дамла- Дамла Сёнмез
    Бурак - Ахмет Рифат Шунгар
    Кевин - Якоб Фишел
    Доктор - Стюарт Загнит
    Мина - Озюм Эрсой
    Найта - Санем Оге
    Сабри - Хакан Карсак
    Мехмет - Мерт Булган
    Ипек - Айча Йагджиоглу
    Аслы - Элит Урсе
    Сельчук - Сердар Йегин
    Тео - Синан Эджзаджибаши
    Описание: Дамла - успешная бизнес леди, живущая в Нью-Йорке. Несмотря на любимого американского мужа Кевина и 6-месячного ребенка в утробе, она не готова стать матерью. Её прошлое, постоянно всплывает в памяти... Она родилась в Турции, у неё был любимый парень по имени Бурак. Но по сложившимся обстоятельствам, в свои 15 лет, Дамла уезжает в Америку и там продолжает учебу и заканчивает университет. Известие о продаже коттеджа, где она провела свое детство, снова вызвало у неё тяжелые воспоминания. Кевин уже давно заметил что-то необычное в поведении своей жены. Он принимает решение о поездке в Турцию, где Дамла наконец-то развяжет все свои сомнения и терзания несостоявшейся ее первой любви.
    Фильм рассказывает, как молодая женщина строит новые отношения, не закончив старые. Как, ради карьеры, жертвуется юношеская любовь. О ревности мужа к прошлым отношениям жены, о лжи, которую придумывают девушки, чтобы казаться лучше, о не закрытой старой истории и обиды, которые не дают возможность стать счастливым.
    Доп. информация: Перевод на русский язык по заказу Продюссерской компании "MILA" (Marina Kolodina) - Dina&Primavera, субтитры - Primavera, релиз сериала - shachter58
    Сэмпл: http://multi-up.com/1068838
    Качество видео: WEBRip
    Формат видео: AVI
    Видео: MPEG-4 Visual, XviD, 1758 Кбит/с, 25.000 fps, 720x304, Bits/(Pixel*Frame)-0.321
    Аудио: MPEG Audio, МР3, 2 channels, 44.1 KHz, 192 Kbps - Турецкий
    Формат субтитров: hardsub (неотключаемые)

    MediaInfo

    General
    Complete name: I:\КИНО ТУРЦИИ\Uroven.morya.2014.russ.sub.MILA.WEBRip.avi
    Format : AVI
    Format/Info : Audio Video Interleave
    File size : 1.35 GiB
    Duration : 1h 38mn
    Overall bit rate : 1 960 Kbps
    Video
    ID : 0
    Format : MPEG-4 Visual
    Format profile : Advanced Simple@L5
    Format settings, BVOP : 2
    Format settings, QPel : No
    Format settings, GMC : No warppoints
    Format settings, Matrix : Default (H.263)
    Codec ID : XVID
    Codec ID/Hint : XviD
    Duration : 1h 38mn
    Bit rate : 1 758 Kbps
    Width : 720 pixels
    Height : 304 pixels
    Display aspect ratio : 2.35:1
    Frame rate : 25.000 fps
    Color space : YUV
    Chroma subsampling : 4:2:0
    Bit depth : 8 bits
    Scan type : Progressive
    Compression mode : Lossy
    Bits/(Pixel*Frame) : 0.321
    Stream size : 1.21 GiB (90%)
    Writing library : XviD 63
    Audio
    ID : 1
    Format : MPEG Audio
    Format version : Version 1
    Format profile : Layer 3
    Mode : Joint stereo
    Mode extension : MS Stereo
    Codec ID : 55
    Codec ID/Hint : MP3
    Duration : 1h 38mn
    Bit rate mode : Constant
    Bit rate : 192 Kbps
    Channel(s) : 2 channels
    Sampling rate : 44.1 KHz
    Compression mode : Lossy
    Stream size : 136 MiB (10%)
    Alignment : Split accross interleaves
    Interleave, duration : 40 ms (1.00 video frame)
    Interleave, preload duration : 500 ms
    Writing library : LAME3.99.5

    Скриншот c названием фильма

    Скриншоты


    Скачать .torrent

    Скачать торрент-файл бесплатно и на максимальной скорости!

    Как скачивать? · Что такое торрент? · Рейтинг и ограничения

    !ВНИМАНИЕ!
    Сайт не распространяет и не хранит электронные версии произведений, а занимается лишь лишь предоставлением доступа к создаваемому пользователями каталогу ссылок на торрент-файлы, которые содержат только списки хеш-сумм, убедительная просьба с жалобами обращаться напрямую к пользователю. Файлы для обмена на трекере предоставлены пользователями сайта, и администрация не несёт ответственности за их содержание. Просьба не заливать файлы, защищенные авторскими правами, а также файлы нелегального содержания!


    _________________
    [Профиль] [ЛС]
    Показать сообщения:    
    Ответить на тему

    Текущее время: Сегодня, в 20:50

    Часовой пояс: GMT + 2



    Вы не можете начинать темы
    Вы не можете отвечать на сообщения
    Вы не можете редактировать свои сообщения
    Вы не можете удалять свои сообщения
    Вы не можете голосовать в опросах
    Вы не можете прикреплять файлы к сообщениям
    Вы не можете скачивать файлы