BitTorrentTracker PerecTracker.org
BitTorrentTracker PerecTracker.org
    
Регистрация  ·  Вход
 
 · 
Забыли пароль?

  • Здорово и вечно (Наталья Чумакова, Анна Цирлина) [2014, Документальный фильм, WEB-DLRip]

    Ответить на тему
     
    Автор Сообщение

    rechyn

    Создавать темы 30-Сен-2015 02:20

           

    [Цитировать]

    Здорово и вечно
    Жанр: Документальный фильм
    Год выпуска: 2014
    Продолжительность: 01:20:13
    Режиссёр: Наталья Чумакова, Анна Цирлина
    Принимали участие:
    Сергей Летов
    Александр «Иваныч» Рожков
    Валерий «Валерыч» Рожков
    Сергей Жариков
    Константин «Кузьма» Рябинов
    Ирина Рябинова
    Олег «Манагер» Судаков
    Вадим «Лукич» Кузьмин
    Денис Каспирович
    Сергей Тендитный
    Алексей «Плюха» Плюснин
    Фёдор Фомин
    Игорь «Игорёз» Рагулин
    Аркадий Климкин
    Игорь Староватов
    Сергей Фирсов
    Сергей Гурьев
    Игорь «Джефф» Жевтун
    Описание: Фильм рассказывает о творческом пути Егора Летова с начала 80-ых до начала 90-ых годов. О том с чего началась любовь к музыке. О жизни в Москве и возвращении в Омск. Как появилась идея первой группы «Посев». Как из этого всего выросла «Гражданская оборона». Отношения с властями и КГБ. Сумасшедший дом. О фестивале в Новосибирске в 1987 году. О знакомстве Егора с Янкой Дягилевой и совместном творчестве. О фестивале в Москве в 1988 году. О создании концептуального музыкального проекта «Коммунизм». Рассказывается о «последнем концерте» «Гражданской обороны» в Таллине в 1990 году и роспуске группы. Фильм заканчивается кадрами с несостоявшегося концерта в Москве в декабре 1993 года.
    Доп. информация: В 2009 году Наталья Чумакова, жена Егора Летова, смонтировала небольшой 40-минутный фильм из домашнего видео — «Егор Летов: Проект фильма». «Проект фильма» с успехом был показан на фестивале современного кино «2morrow» в Москве в этом же году. Наталья рассчитывала, что найдутся кинематографисты, которые возьмутся за полноценный полнометражный фильм о Летове и «Гражданской обороне», но поскольку этого не произошло стала снимать сама. Съёмки растянулись на пять лет. Первоначально фильм назывался «Гражданская оборона: начало». К ноябрю 2013 года было отснято и отобрано около 300 часов материала. 20 ноября началась краудфандинг-акция на сайте Kroogi для сбора средств нужных для монтажа фильма. Нужная сумма была собрана за месяц. Выход фильма был запланирован на осень 2014 года — это и 50-летие Егора Летова и 30-летие «Гражданской обороны».
    Фильм был переименован в «Здорово и вечно» — это одноимённый студийный альбом 1989 года и песня.
    Сэмпл: http://sendfile.su/1159462
    Качество видео: WEB-DLRip
    Формат видео: AVI
    Видео: Xvid, 720x480, 25.00fps, 2 352 Kbps
    Аудио: Русский, MPEG Audio Layer 3, 48000Hz, stereo, 2 ch, 128kbps

    MediaInfo

    General
    Complete name : E:\Фільми\Здорово и вечно\Здорово и вечно (2014) WEBRip.avi
    Format : AVI
    Format/Info : Audio Video Interleave
    Format profile : OpenDML
    File size : 1.40 GiB
    Duration : 1h 20mn
    Overall bit rate : 2 495 Kbps
    Writing application : Lavf52.39.1
    Video
    ID : 0
    Format : xvid
    Codec ID : xvid
    Duration : 1h 20mn
    Bit rate : 2 352 Kbps
    Width : 720 pixels
    Height : 480 pixels
    Display aspect ratio : 3:2
    Frame rate : 25.000 fps
    Standard : NTSC
    Bits/(Pixel*Frame) : 0.272
    Stream size : 1.32 GiB (94%)
    Audio
    ID : 1
    Format : MPEG Audio
    Format version : Version 1
    Format profile : Layer 3
    Mode : Joint stereo
    Mode extension : MS Stereo
    Codec ID : 55
    Codec ID/Hint : MP3
    Duration : 24mn 22s
    Bit rate mode : Constant
    Bit rate : 128 Kbps
    Channel(s) : 2 channels
    Sampling rate : 48.0 KHz
    Stream size : 22.3 MiB (2%)
    Alignment : Aligned on interleaves
    Interleave, duration : 79 ms (1.98 video frames)
    Writing library : LAME3.96.1

    Скриншот c названием фильма

    Скриншоты



    Скачать .torrent

    Скачать торрент-файл бесплатно и на максимальной скорости!

    Как скачивать? · Что такое торрент? · Рейтинг и ограничения

    !ВНИМАНИЕ!
    Сайт не распространяет и не хранит электронные версии произведений, а занимается лишь лишь предоставлением доступа к создаваемому пользователями каталогу ссылок на торрент-файлы, которые содержат только списки хеш-сумм, убедительная просьба с жалобами обращаться напрямую к пользователю. Файлы для обмена на трекере предоставлены пользователями сайта, и администрация не несёт ответственности за их содержание. Просьба не заливать файлы, защищенные авторскими правами, а также файлы нелегального содержания!


    _________________
    [Профиль] [ЛС]

    -746

    Создавать темы 17-Янв-2016 22:52 (спустя 3 месяца 17 дней)

           

    Топик был перенесен из форума Наше кино в форум Биографии. Личности и кумиры


    -sasha2006

    _________________
    Как бы ты высоко не летал, не забывай, с кем ты ползал..
     
    Показать сообщения:    
    Ответить на тему

    Текущее время: Сегодня, в 23:20

    Часовой пояс: GMT + 2



    Вы не можете начинать темы
    Вы не можете отвечать на сообщения
    Вы не можете редактировать свои сообщения
    Вы не можете удалять свои сообщения
    Вы не можете голосовать в опросах
    Вы не можете прикреплять файлы к сообщениям
    Вы не можете скачивать файлы