BitTorrentTracker PerecTracker.org
BitTorrentTracker PerecTracker.org
    
Регистрация  ·  Вход
 
 · 
Забыли пароль?

  • Когда человек улыбнулся (Борис Ивченко) [1973, драма, DVB]

    Ответить на тему
     
    Автор Сообщение

    Light

    Создавать темы 30-Сен-2015 02:20

           

    [Цитировать]

    Когда человек улыбнулся
    Жанр: драма
    Год выпуска: 1973
    Продолжительность: 01:12:16
    Режиссёр: Борис Ивченко
    В ролях: Иван Миколайчук, Борис Савченко, Земфира Цахилова, Анатолий Барчук, Владимир Волков, Галина Демчук, Галина Долгозвяга, Светлана Кондратова, Виктор Маляревич, Фёдор Панасенко, Виталий Розстальный, Фёдор Стригун, Владимир Талашко, Лариса Халафова
    Описание: Экранизация романа Петра Лебеденко "Четвертый разворот". О трагедии двух семей, когда в автокатастрофе погибли летчик Роман и стюардесса Ольга. Маленький сын Ольги и Алексея потерял мать, а Инга - любимого человека.
    Доп. информация: Запись потока *.ts со спутника EUTELSAT 36A/B, 36° в.д., ремукс в *.MKV
    Качество видео: DVB
    Формат видео: MKV
    Видео: MPEG Video, 720x576 (4:3), 25,000 кадров/сек, 2469 Кбит/сек
    Аудио: MPEG Audio, 48,0 КГц, 192 Кбит/сек, 2 канала

    MediaInfo

    Общее
    Уникальный идентификатор : 216769032964164119850786038795363408937 (0xA31432791680B99A50A39301B3B7DC29)
    Полное имя : D:\MPG\КОГДА ЧЕЛОВЕК УЛЫБНУЛСЯ (Ностальгия).mkv
    Формат : Matroska
    Версия формата : Version 2
    Размер файла : 1,37 Гбайт
    Продолжительность : 1 ч. 12 м.
    Режим общего битрейта : Переменный
    Общий поток : 2715 Кбит/сек
    Программа кодирования : Lavf52.64.2
    Библиотека кодирования : Lavf52.64.2
    Видео
    Идентификатор : 1
    Формат : MPEG Video
    Версия формата : Version 2
    Профиль формата : Main@Main
    Параметр BVOP формата : Нет
    Параметр матрицы формата : Выборочная
    Идентификатор кодека : V_MPEG2
    Идентификатор кодека/Информация : MPEG 1 or 2 Video
    Продолжительность : 1 ч. 12 м.
    Вид битрейта : Переменный
    Битрейт : 2469 Кбит/сек
    Максимальный битрейт : 15,0 Мбит/сек
    Ширина : 720 пикселей
    Высота : 576 пикселей
    Соотношение сторон : 4:3
    Соотношение сторон в оригинале : 4:3
    Режим частоты кадров : Постоянный
    Частота кадров : 25,000 кадров/сек
    Стандарт вещания : PAL
    Цветовое пространство : YUV
    Субдискретизация насыщенности : 4:2:0
    Битовая глубина : 8 бит
    Тип развёртки : Чересстрочная
    Порядок развёртки : Верхнее поле первое
    Метод сжатия : С потерями
    Бит/(Пиксели*Кадры) : 0.238
    Временной код первого кадра : 00:00:00:00
    Оригинал временного кода : Group of pictures header
    Размер потока : 1,25 Гбайт (91%)
    Default : Да
    Forced : Нет
    Аудио
    Идентификатор : 2
    Формат : MPEG Audio
    Версия формата : Version 1
    Профиль формата : Layer 2
    Идентификатор кодека : A_MPEG/L2
    Идентификатор кодека/Подсказка : MP2
    Продолжительность : 1 ч. 12 м.
    Вид битрейта : Постоянный
    Битрейт : 192 Кбит/сек
    Каналы : 2 канала
    Частота : 48,0 КГц
    Метод сжатия : С потерями
    Задержка видео : -1 м. 5 с.
    Размер потока : 99,2 Мбайт (7%)
    Язык : Russian
    Default : Да
    Forced : Нет

    Скриншоты

    Скачать .torrent

    Скачать торрент-файл бесплатно и на максимальной скорости!

    Как скачивать? · Что такое торрент? · Рейтинг и ограничения

    !ВНИМАНИЕ!
    Сайт не распространяет и не хранит электронные версии произведений, а занимается лишь лишь предоставлением доступа к создаваемому пользователями каталогу ссылок на торрент-файлы, которые содержат только списки хеш-сумм, убедительная просьба с жалобами обращаться напрямую к пользователю. Файлы для обмена на трекере предоставлены пользователями сайта, и администрация не несёт ответственности за их содержание. Просьба не заливать файлы, защищенные авторскими правами, а также файлы нелегального содержания!


    _________________
    [Профиль] [ЛС]
    Показать сообщения:    
    Ответить на тему

    Текущее время: Сегодня, в 10:13

    Часовой пояс: GMT + 2



    Вы не можете начинать темы
    Вы не можете отвечать на сообщения
    Вы не можете редактировать свои сообщения
    Вы не можете удалять свои сообщения
    Вы не можете голосовать в опросах
    Вы не можете прикреплять файлы к сообщениям
    Вы не можете скачивать файлы