BitTorrentTracker PerecTracker.org
BitTorrentTracker PerecTracker.org
    
Регистрация  ·  Вход
 
 · 
Забыли пароль?

  • [iPad] Эшби / Ashby (Тони МакНамара / Tony McNamara ) [2015, США, Драма, мелодрама, комедия, криминал, WEB-DLRip, SD (576p)] DUB

    Ответить на тему
     
    Автор Сообщение

    rechyn

    Создавать темы 29-Сен-2015 13:44

           

    [Цитировать]

    Эшби / Ashby
    «Просто киллер»
    6.553 / 10 6.40 / 10
    -Год выпуска: 2015
    Страна: США
    Жанр: Драма, мелодрама, комедия, криминал
    Продолжительность: 01:42:45
    Перевод: Дублированный (iTunes)
    Оригинальная аудиодорожка: Нет
    Режиссёр: Тони МакНамара
    Сценарий: Тони МакНамара
    Продюсер: Фил Хант, Джош Кесселман, Рори Кослоу
    Оператор: Кристофер Баффа
    Композитор: Алек Пуро
    Художник: Брент Томас, Эмили Батсон, Тим Поуп
    Монтаж: Мэтт Фридман
    В ролях: Микки Рурк, Нат Вулф, Эмма Робертс, Сара Силверман, Кевин Данн, Захари Найтон, Майкл Лернер, Джон Инос III, Стив Култер, Том Ноуики
    Мировая премьера: 19 апреля 2015
    Премьера (РФ): 24 сентября 2015, «Парадиз»
    Описание: Переехав в другой город, Эд начинает дружить со своим новым соседом Эшби — бывшим киллером ЦРУ, которому осталось жить всего несколько месяцев…-Качество исходника: WEB-DL 1080p
    Качество: WEB-DLRip
    Тип: SD (576p)
    Контейнер: M4V
    Видео: H.264, 1024x432, 2.40:1, 2 200 Kbps, 23.976 fps
    Аудио: Русский/Дублированный (iTunes), AAC / 2.0 / 156 Kbps / 48.0 KHz
    -

    iTunes Meta Tags

    Sort Name: Эшби
    XID: Apple:vendor_id:2015-840981
    contentID: 1038822355
    Copyright: © 2015 Paradise
    Screenwriters: Тони МакНамара
    Producers: Фил Хант, Джош Кесселман, Рори Кослоу
    Director: Тони МакНамара
    Cast: Микки Рурк, Нат Вулф, Эмма Робертс, Сара Силверман, Кевин Данн, Захари Найтон, Майкл Лернер, Джон Инос III, Стив Култер, Том Ноуики, Владимир Антипов
    Studio: Head Gear Films, Langley Park Productions, Metrol Technology
    Rating: 5
    Long Description: Поступив в университет, Эд начинает дружить со своим соседом Эшби - бывшим киллером ЦРУ, которому осталось жить всего несколько месяцев...
    Description: Поступив в университет, Эд начинает дружить со своим соседом Эшби - бывшим киллером ЦРУ, которому осталось жить всего несколько месяцев...
    Release Date: 2015-04-19T08:00:00Z
    Genre: Драма
    Artist: Тони МакНамара
    Name: Эшби

    MediaInfo

    General
    Complete name : /Users/imac/HandBrake/Ashby.(SD).(pk).m4v
    Format : MPEG-4
    Codec ID : M4V
    File size : 1.69 GiB
    Duration : 1h 42mn
    Overall bit rate mode : Variable
    Overall bit rate : 2 361 Kbps
    Movie name : Эшби
    Performer : Тони МакНамара
    Director : Тони МакНамара
    Actor : Микки Рурк / Нат Вулф / Эмма Робертс / Сара Силверман / Кевин Данн / Захари Найтон / Майкл Лернер / Джон Инос III / Стив Култер / Том Ноуики / Владимир Антипов
    Screenplay by : Тони МакНамара
    Producer : Фил Хант / Джош Кесселман / Рори Кослоу
    Production studio : Head Gear Films, Langley Park Productions, Metrol Technology
    Genre : Драма
    ContentType : Short Film
    Description : Поступив в университет, Эд начинает дружить со своим соседом Эшби - бывшим киллером ЦРУ, которому осталось жить всего несколько месяцев...
    Recorded date : UTC 2015-04-19 08:00:00
    Encoded date : UTC 2015-09-29 09:51:02
    Tagged date : UTC 2015-09-29 09:51:39
    Copyright : © 2015 Paradise
    Cover : Yes
    Rating : None
    Title/Sort : Эшби
    LongDescription : Поступив в университет, Эд начинает дружить со своим соседом Эшби - бывшим киллером ЦРУ, которому осталось жить всего несколько месяцев...
    AppleStoreCatalogID : 1038822355
    Vendor : Apple:vendor_id:2015-840981
    ContentRating : ru-movie|18+|400|
    Video
    ID : 1
    Format : AVC
    Format/Info : Advanced Video Codec
    Format profile : High@L3.1
    Format settings, CABAC : Yes
    Format settings, ReFrames : 9 frames
    Codec ID : avc1
    Codec ID/Info : Advanced Video Coding
    Duration : 1h 42mn
    Bit rate : 2 200 Kbps
    Width : 1 024 pixels
    Height : 432 pixels
    Display aspect ratio : 2.40:1
    Frame rate mode : Variable
    Frame rate : 23.976 fps
    Minimum frame rate : 23.810 fps
    Maximum frame rate : 24.318 fps
    Color space : YUV
    Chroma subsampling : 4:2:0
    Bit depth : 8 bits
    Scan type : Progressive
    Bits/(Pixel*Frame) : 0.207
    Stream size : 1.58 GiB (93%)
    Title : Main Program
    Writing library : x264 core 142 r2479 dd79a61
    Encoding settings : cabac=1 / ref=9 / deblock=1:0:0 / analyse=0x3:0x113 / me=umh / subme=9 / psy=1 / psy_rd=1.00:0.00 / mixed_ref=1 / me_range=32 / chroma_me=1 / trellis=1 / 8x8dct=1 / cqm=0 / deadzone=21,11 / fast_pskip=1 / chroma_qp_offset=-2 / threads=36 / lookahead_threads=3 / sliced_threads=0 / nr=0 / decimate=1 / interlaced=0 / bluray_compat=0 / constrained_intra=0 / bframes=6 / b_pyramid=2 / b_adapt=2 / b_bias=0 / direct=1 / weightb=1 / open_gop=0 / weightp=2 / keyint=240 / keyint_min=24 / scenecut=40 / intra_refresh=0 / rc_lookahead=40 / rc=2pass / mbtree=1 / bitrate=2200 / ratetol=1.0 / qcomp=0.60 / qpmin=0 / qpmax=69 / qpstep=4 / cplxblur=20.0 / qblur=0.5 / ip_ratio=1.40 / aq=1:1.00
    Language : English
    Encoded date : UTC 2015-09-29 09:51:02
    Tagged date : UTC 2015-09-29 09:51:07
    Color range : Limited
    Color primaries : BT.709
    Transfer characteristics : BT.709
    Matrix coefficients : BT.709
    Audio
    ID : 2
    Format : AAC
    Format/Info : Advanced Audio Codec
    Format profile : LC
    Codec ID : 40
    Duration : 1h 42mn
    Bit rate mode : Variable
    Bit rate : 156 Kbps
    Maximum bit rate : 252 Kbps
    Channel(s) : 2 channels
    Channel positions : Front: L R
    Sampling rate : 48.0 KHz
    Compression mode : Lossy
    Stream size : 115 MiB (7%)
    Title : Russian Stereo
    Language : Russian
    Encoded date : UTC 2015-09-29 09:51:03
    Tagged date : UTC 2015-09-29 09:51:20

    x264 лог

    x264 [info]: frame I:1360  Avg QP:11.34  size: 98562
    x264 [info]: frame P:38415 Avg QP:13.95  size: 25830
    x264 [info]: frame B:108046 Avg QP:16.83  size:  5261
    x264 [info]: consecutive B-frames:  2.2%  4.3%  4.2% 73.2%  5.4%  8.7%  1.8%
    x264 [info]: mb I  I16..4:  7.1% 62.4% 30.6%
    x264 [info]: mb P  I16..4:  1.0%  5.2%  1.7%  P16..4: 32.8% 29.2% 21.4%  0.0%  0.0%    skip: 8.7%
    x264 [info]: mb B  I16..4:  0.1%  0.5%  0.3%  B16..8: 31.7% 10.6%  3.4%  direct: 4.1%  skip:49.3%  L0:39.6% L1:45.0% BI:15.4%
    x264 [info]: 8x8 transform intra:62.9% inter:59.7%
    x264 [info]: coded y,uvDC,uvAC intra: 88.0% 89.0% 77.8% inter: 24.7% 21.4% 7.0%
    x264 [info]: i16 v,h,dc,p: 53% 13%  8% 26%
    x264 [info]: i8 v,h,dc,ddl,ddr,vr,hd,vl,hu: 12% 13% 10%  8% 11% 11% 12% 11% 13%
    x264 [info]: i4 v,h,dc,ddl,ddr,vr,hd,vl,hu: 10% 13%  4%  8% 13% 12% 14% 11% 15%
    x264 [info]: i8c dc,h,v,p: 48% 22% 17% 14%
    x264 [info]: Weighted P-Frames: Y:1.9% UV:1.0%
    x264 [info]: ref P L0: 55.3%  8.7% 16.2%  5.8%  4.7%  3.2%  2.8%  1.6%  1.6%  0.1%  0.0%
    x264 [info]: ref B L0: 76.7% 11.5%  4.9%  2.5%  1.7%  1.4%  0.9%  0.4%
    x264 [info]: ref B L1: 94.7%  5.3%
    x264 [info]: kb/s:2199.02

    Скриншоты

    -

    Релиз подготовлен для просмотра на Apple TV, iPad, iPhone, iPod Touch.
    Для просмотра данного релиза на компьютере с ОС Windows рекомендуется использовать VLC media player
    Скачать .torrent

    Скачать торрент-файл бесплатно и на максимальной скорости!

    Как скачивать? · Что такое торрент? · Рейтинг и ограничения

    !ВНИМАНИЕ!
    Сайт не распространяет и не хранит электронные версии произведений, а занимается лишь лишь предоставлением доступа к создаваемому пользователями каталогу ссылок на торрент-файлы, которые содержат только списки хеш-сумм, убедительная просьба с жалобами обращаться напрямую к пользователю. Файлы для обмена на трекере предоставлены пользователями сайта, и администрация не несёт ответственности за их содержание. Просьба не заливать файлы, защищенные авторскими правами, а также файлы нелегального содержания!


    _________________
    [Профиль] [ЛС]
    Показать сообщения:    
    Ответить на тему

    Текущее время: Сегодня, в 16:34

    Часовой пояс: GMT + 2



    Вы не можете начинать темы
    Вы не можете отвечать на сообщения
    Вы не можете редактировать свои сообщения
    Вы не можете удалять свои сообщения
    Вы не можете голосовать в опросах
    Вы не можете прикреплять файлы к сообщениям
    Вы не можете скачивать файлы