BitTorrentTracker PerecTracker.org
BitTorrentTracker PerecTracker.org
    
Регистрация  ·  Вход
 
 · 
Забыли пароль?

  • Затаившись / Hidden (Мэтт Даффер / Matt Duffer / Росс Даффер / Ross Duffer) [2015, США, ужасы, триллер, HDRip] DVO (den904 & DeadSno)

    Ответить на тему
     
    Автор Сообщение

    rechyn

    Создавать темы 28-Сен-2015 15:03

           

    [Цитировать]

    Затаившись / Hidden
    Страна: США
    Жанр: ужасы, триллер
    Год выпуска: 2015
    Продолжительность: 01:23:13
    Перевод: Любительский (двухголосый закадровый) den904 & DeadSno
    Cубтитры: нет
    Оригинальная аудиодорожка: нет
    Режиссер: Мэтт Даффер / Matt Duffer / Росс Даффер / Ross Duffer
    В ролях: Александр Скарсгард, Андреа Райзборо, Эмили Элин Линд, Хезер Дорксен, Уильям Энскау
    Описание: Рэй, Клэр и их семилетняя дочь Зои — обычная американская семья, живущая в Кингсвилле, Северная Каролина, — вот только живут они в бомбоубежище с тех самых пор, как наступил конец света, который изменил все.
    За 301 день они превратили свою бетонную темницу в дом, держась за воспоминания о прошлом и надеясь когда-нибудь вернуться к нормальной жизни. 301 день им удавалось избегать того, что обитает на поверхности, — тяжелое дыхание, грохочущие шаги, раздающиеся в ночи, внушают страх находящимся в хрупком убежище.
    Все это время семье удавалось оставаться незамеченной. До сих пор. Сейчас их безопасность под угрозой… и нечто идет за ними.

    Сэмпл: http://multi-up.com/1068509
    Качество видео: HDRip (исходник не известен)
    Формат видео: AVI
    Видео: Xvid 720x304 23.98fps 1 887 Kbps
    Аудио: Dolby AC3 48000Hz 6ch 448kbps

    MediaInfo

    Format : AVI
    Format/Info : Audio Video Interleave
    File size : 1.36 GiB
    Duration : 1h 23mn
    Overall bit rate : 2 345 Kbps
    Writing application : VirtualDubMod 1.5.10.2 (build 2540/release)
    Writing library : VirtualDubMod build 2540/release
    Video
    ID : 0
    Format : MPEG-4 Visual
    Format profile : AdvancedSimple@L5
    Format settings, BVOP : Yes
    Format settings, QPel : No
    Format settings, GMC : No warppoints
    Format settings, Matrix : Default (H.263)
    Muxing mode : Packed bitstream
    Codec ID : XVID
    Codec ID/Hint : XviD
    Duration : 1h 23mn
    Bit rate : 1 887 Kbps
    Width : 720 pixels
    Height : 304 pixels
    Display aspect ratio : 2.35:1
    Frame rate : 23.976 fps
    Resolution : 24 bits
    Colorimetry : 4:2:0
    Scan type : Progressive
    Bits/(Pixel*Frame) : 0.360
    Stream size : 1.10 GiB (80%)
    Writing library : XviD 66
    Audio
    ID : 1
    Format : AC-3
    Format/Info : Audio Coding 3
    Codec ID : 2000
    Duration : 1h 23mn
    Bit rate mode : Constant
    Bit rate : 448 Kbps
    Channel(s) : 6 channels
    Channel positions : Front: L C R, Surround: L R, LFE
    Sampling rate : 48.0 KHz
    Stream size : 267 MiB (19%)
    Alignment : Split accross interleaves
    Interleave, duration : 42 ms (1.00 video frame)
    Interleave, preload duration : 500 ms

    Скриншот c названием фильма

    Скриншоты

    Скачать .torrent

    Скачать торрент-файл бесплатно и на максимальной скорости!

    Как скачивать? · Что такое торрент? · Рейтинг и ограничения

    !ВНИМАНИЕ!
    Сайт не распространяет и не хранит электронные версии произведений, а занимается лишь лишь предоставлением доступа к создаваемому пользователями каталогу ссылок на торрент-файлы, которые содержат только списки хеш-сумм, убедительная просьба с жалобами обращаться напрямую к пользователю. Файлы для обмена на трекере предоставлены пользователями сайта, и администрация не несёт ответственности за их содержание. Просьба не заливать файлы, защищенные авторскими правами, а также файлы нелегального содержания!


    _________________
    [Профиль] [ЛС]
    Показать сообщения:    
    Ответить на тему

    Текущее время: Сегодня, в 11:53

    Часовой пояс: GMT + 2



    Вы не можете начинать темы
    Вы не можете отвечать на сообщения
    Вы не можете редактировать свои сообщения
    Вы не можете удалять свои сообщения
    Вы не можете голосовать в опросах
    Вы не можете прикреплять файлы к сообщениям
    Вы не можете скачивать файлы