BitTorrentTracker PerecTracker.org
BitTorrentTracker PerecTracker.org
    
Регистрация  ·  Вход
 
 · 
Забыли пароль?

  • Обломов (О.Ремез) [1972, Драма, WEB-DL-AVC]

    Ответить на тему
     
    Автор Сообщение

    Light

    Создавать темы 28-Сен-2015 10:51

           

    [Цитировать]

    Обломов
    Жанр: Драма
    Год выпуска: 1972
    Продолжительность: 02:21:00
    Режиссёр: О.Ремез
    В ролях: В.Носик, Н.Попова, Ю.Стромов, Р.Вильдан
    Описание: Экранизация класического романа Гончарова "Обломов".От версии Михалкова отличается большей схожестью с повествованием романа, другим прочтением характера Обломова. Да и Ольга тут очень хороша - лучшее изображение этого персонажа в кино.
    Выложен тут из за редкости и вообще эта экранизация романа самая неизвестная и почти ни в одном справочнике ее нет.
    Сэмпл: http://sendfile.su/1158796
    Качество видео: WEB-DL
    Формат видео: MP4
    Видео: AVC, 1184x872, 4x3, 50 fps, 2 875 Kbps
    Аудио: Русский,AAC,44.1 KHz, 320 Kbps, 2 channels

    MediaInfo

    1
    General
    Complete name : G:\обломов 1.mp4
    Format : MPEG-4
    Format profile : Base Media / Version 2
    Codec ID : mp42
    File size : 1.45 GiB
    Duration : 1h 4mn
    Overall bit rate : 3 200 Kbps
    Encoded date : UTC 2015-09-27 11:11:54
    Tagged date : UTC 2015-09-27 11:11:54
    Video
    ID : 2
    Format : AVC
    Format/Info : Advanced Video Codec
    Format profile : Main@L3.2
    Format settings, CABAC : Yes
    Format settings, ReFrames : 4 frames
    Format settings, GOP : M=3, N=24
    Codec ID : avc1
    Codec ID/Info : Advanced Video Coding
    Duration : 1h 4mn
    Bit rate mode : Variable
    Bit rate : 2 875 Kbps
    Width : 1 184 pixels
    Height : 872 pixels
    Display aspect ratio : 4:3
    Frame rate mode : Constant
    Frame rate : 50.000 fps
    Original frame rate : 25.000 fps
    Standard : NTSC
    Color space : YUV
    Chroma subsampling : 4:2:0
    Bit depth : 8 bits
    Scan type : Interlaced
    Scan order : Bottom Field First
    Bits/(Pixel*Frame) : 0.056
    Stream size : 1.30 GiB (90%)
    Language : English
    Encoded date : UTC 2015-09-27 11:11:54
    Tagged date : UTC 2015-09-27 11:11:54
    Audio
    ID : 1
    Format : AAC
    Format/Info : Advanced Audio Codec
    Format profile : LC
    Codec ID : 40
    Duration : 1h 4mn
    Bit rate mode : Constant
    Bit rate : 320 Kbps
    Channel(s) : 2 channels
    Channel positions : Front: L R
    Sampling rate : 44.1 KHz
    Compression mode : Lossy
    Stream size : 148 MiB (10%)
    Language : English
    Encoded date : UTC 2015-09-27 11:11:54
    Tagged date : UTC 2015-09-27 11:11:54
    2
    General
    Complete name : G:\торрент\обломов 1972\обломов 2.mp4
    Format : MPEG-4
    Format profile : Base Media / Version 2
    Codec ID : mp42
    File size : 2.13 GiB
    Duration : 1h 17mn
    Overall bit rate : 3 932 Kbps
    Encoded date : UTC 2015-09-27 17:42:10
    Tagged date : UTC 2015-09-27 17:42:10
    Video
    ID : 2
    Format : AVC
    Format/Info : Advanced Video Codec
    Format profile : Main@L3.2
    Format settings, CABAC : Yes
    Format settings, ReFrames : 4 frames
    Codec ID : avc1
    Codec ID/Info : Advanced Video Coding
    Duration : 1h 17mn
    Bit rate mode : Variable
    Bit rate : 3 607 Kbps
    Width : 1 184 pixels
    Height : 872 pixels
    Display aspect ratio : 4:3
    Frame rate mode : Constant
    Frame rate : 50.000 fps
    Original frame rate : 25.000 fps
    Standard : NTSC
    Color space : YUV
    Chroma subsampling : 4:2:0
    Bit depth : 8 bits
    Scan type : Interlaced
    Scan order : Bottom Field First
    Bits/(Pixel*Frame) : 0.070
    Stream size : 1.96 GiB (92%)
    Language : English
    Encoded date : UTC 2015-09-27 17:42:10
    Tagged date : UTC 2015-09-27 17:42:10
    Audio
    ID : 1
    Format : AAC
    Format/Info : Advanced Audio Codec
    Format profile : LC
    Codec ID : 40
    Duration : 1h 17mn
    Bit rate mode : Constant
    Bit rate : 320 Kbps
    Channel(s) : 2 channels
    Channel positions : Front: L R
    Sampling rate : 44.1 KHz
    Compression mode : Lossy
    Stream size : 178 MiB (8%)
    Language : English
    Encoded date : UTC 2015-09-27 17:42:10
    Tagged date : UTC 2015-09-27 17:42:10

    Скриншот c названием фильма

    Скриншоты





    Скачать .torrent

    Скачать торрент-файл бесплатно и на максимальной скорости!

    Как скачивать? · Что такое торрент? · Рейтинг и ограничения

    !ВНИМАНИЕ!
    Сайт не распространяет и не хранит электронные версии произведений, а занимается лишь лишь предоставлением доступа к создаваемому пользователями каталогу ссылок на торрент-файлы, которые содержат только списки хеш-сумм, убедительная просьба с жалобами обращаться напрямую к пользователю. Файлы для обмена на трекере предоставлены пользователями сайта, и администрация не несёт ответственности за их содержание. Просьба не заливать файлы, защищенные авторскими правами, а также файлы нелегального содержания!


    _________________
    [Профиль] [ЛС]
    Показать сообщения:    
    Ответить на тему

    Текущее время: Сегодня, в 22:27

    Часовой пояс: GMT + 2



    Вы не можете начинать темы
    Вы не можете отвечать на сообщения
    Вы не можете редактировать свои сообщения
    Вы не можете удалять свои сообщения
    Вы не можете голосовать в опросах
    Вы не можете прикреплять файлы к сообщениям
    Вы не можете скачивать файлы