BitTorrentTracker PerecTracker.org
BitTorrentTracker PerecTracker.org
    
Регистрация  ·  Вход
 
 · 
Забыли пароль?

  • За твою судьбу (Тимур Золоев) [1972, драма, военный, SATRip]

    Ответить на тему
     
    Автор Сообщение

    Light

    Создавать темы 27-Сен-2015 22:15

           

    [Цитировать]

    За твою судьбуЖанр: драма, военный
    Выпущено: УССР, Одесская киностудия
    Год выпуска: 1972
    Продолжительность: 01:24:25
    Режиссёр: Тимур Золоев
    В ролях: Елена Козелькова, Леонид Дьячков, Зинаида Дехтярёва, Ирина Санпитер, Александр Горбатов, Владимир Алексеенко, Юрий Горобец, Вячеслав Жариков, Наталия Санько, Ольга Алексеева, Варвара Каргинова, Бексолтан Тулатов, Виталий Дорошенко, Неонила Гнеповская, Петр Кобржицкий, Петр Аржанов, Наталья Васаженко, Валентина Ивашёва, Софья Карамаш, Светлана Кондратова, Вера Кулакова, Маргарита Мерино, Галина Нехаевская, Алексей Преснецов, Агафья Болотова, Нина Реус, Наташа Сидорова, Олег Шмырев
    Описание: Фильм рассказывает о судьбе советской девочки Тамары Медниковой (Терезы Савченко). Она была освобождена французами из концлагеря Равенсбрюк. Через много лет она приезжает с дочерью на свою историческую родину, чтобы узнать судьбу своей семьи и вылечить дочь...
    Доп. информация:
    Призы и награды:
    * 1973 - Приз Елене Козельковой в номинации «Призы за актерскую работу» на VI Всесоюзном кинофестивале в Алма-Ате;
    * 1973 - Вторая премия за женскую роль второго плана (Зинаида Дехтярёва) на VI Всесоюзном кинофестивале в Алма-Ате;
    Сэмпл: http://multi-up.com/1068468
    Качество видео: SATRip
    Формат видео: AVI
    Видео: XviD, 720x336 (2.10:1), 25.000 fps, 2122 kbps avg
    Аудио: Russian AC3 Dolby Digital, 48 kHz, 2/0 (L,R) ch, 192.00 kbps avg

    MediaInfo

    General
    Complete name : F:\Za.tvoy.sudbu.1972\Za.tvoy.sudbu.1972.SATRip.avi
    Format : AVI
    Format/Info : Audio Video Interleave
    File size : 1.37 GiB
    Duration : 1h 24mn
    Overall bit rate : 2 325 Kbps
    Writing application : VirtualDubMod 1.5.10.3 | www.virtualdub-fr.org || (build 2550/release)
    Writing library : VirtualDubMod build 2550/release
    Video
    ID : 0
    Format : MPEG-4 Visual
    Format profile : Advanced Simple@L5
    Format settings, BVOP : 1
    Format settings, QPel : No
    Format settings, GMC : No warppoints
    Format settings, Matrix : Default (MPEG)
    Codec ID : XVID
    Codec ID/Hint : XviD
    Duration : 1h 24mn
    Bit rate : 2 123 Kbps
    Width : 704 pixels
    Height : 336 pixels
    Display aspect ratio : 2.095
    Frame rate : 25.000 fps
    Color space : YUV
    Chroma subsampling : 4:2:0
    Bit depth : 8 bits
    Scan type : Progressive
    Compression mode : Lossy
    Bits/(Pixel*Frame) : 0.359
    Stream size : 1.25 GiB (91%)
    Writing library : XviD 73
    Audio
    ID : 1
    Format : AC-3
    Format/Info : Audio Coding 3
    Mode extension : CM (complete main)
    Format settings, Endianness : Big
    Codec ID : 2000
    Duration : 1h 24mn
    Bit rate mode : Constant
    Bit rate : 192 Kbps
    Channel(s) : 2 channels
    Channel positions : Front: L R
    Sampling rate : 48.0 KHz
    Bit depth : 16 bits
    Compression mode : Lossy
    Stream size : 116 MiB (8%)
    Alignment : Split accross interleaves
    Interleave, duration : 40 ms (1.00 video frame)
    Interleave, preload duration : 500 ms

    Скриншоты

    Скачать .torrent

    Скачать торрент-файл бесплатно и на максимальной скорости!

    Как скачивать? · Что такое торрент? · Рейтинг и ограничения

    !ВНИМАНИЕ!
    Сайт не распространяет и не хранит электронные версии произведений, а занимается лишь лишь предоставлением доступа к создаваемому пользователями каталогу ссылок на торрент-файлы, которые содержат только списки хеш-сумм, убедительная просьба с жалобами обращаться напрямую к пользователю. Файлы для обмена на трекере предоставлены пользователями сайта, и администрация не несёт ответственности за их содержание. Просьба не заливать файлы, защищенные авторскими правами, а также файлы нелегального содержания!


    _________________
    [Профиль] [ЛС]
    Показать сообщения:    
    Ответить на тему

    Текущее время: Сегодня, в 08:00

    Часовой пояс: GMT + 2



    Вы не можете начинать темы
    Вы не можете отвечать на сообщения
    Вы не можете редактировать свои сообщения
    Вы не можете удалять свои сообщения
    Вы не можете голосовать в опросах
    Вы не можете прикреплять файлы к сообщениям
    Вы не можете скачивать файлы