BitTorrentTracker PerecTracker.org
BitTorrentTracker PerecTracker.org
    
Регистрация  ·  Вход
 
 · 
Забыли пароль?

  • Самый маленький кролик / Счастливчик Хэппи, маленький крольчонок / Happy, the Littlest Bunny (Тошиюки Хирума / Toshiuki Hiruma, Такаши Масунага / Takashi Masunaga) [1994, Анимация, VHSRip] MVO

    Ответить на тему
     
    Автор Сообщение

    rechyn

    Создавать темы 27-Сен-2015 18:03

           

    [Цитировать]

    Самый маленький кролик / Счастливчик Хэппи, маленький крольчонок / Happy, the Littlest Bunny
    Страна: США, Япония
    Жанр: Анимация
    Продолжительность: 00:44:53
    Год выпуска: 1994
    Перевод: Профессиональный (многоголосый закадровый) Инис, Союз Видео
    Русские субтитры: нет
    Режиссёр: Тошиюки Хирума / Toshiuki Hiruma, Такаши Масунага / Takashi Masunaga
    Роли озвучивали: Чера Бэйли, Кэтлин Барр, Лиллиэн Карлсон, Гари Чок
    Описание: Маленький кролик очень расстроен — никто в лесу не хочет с ним дружить, даже его старшие братья. А малышу так хочется поучаствовать в веселых забавах своих друзей!
    И тогда он решает стать супергероем и доказать всем, что он хоть и маленький, но очень храбрый кролик, и ему по плечу любые, даже самые опасные приключения.
    Доп. информация: Оцифровка лицензионной VHS (личный архив) и получение VHSRip alenavova
    Эксклюзив для perectracker.org. При размещении данного релиза на других сайтах ссылка на автора alenavova обязательна.

    Релиз
    Семпл: https://yadi.sk/i/79nHVAVhjMJW3
    Качество: VHSRip
    Формат: AVI
    Видео: 704x512 (1.38:1), 25 fps, XviD build 50 ~2131 kbps avg, 0.24 bit/pixel
    Аудио: 48 kHz, AC3 Dolby Digital, 2/0 (L,R) ch, ~192 kbps
    Субтитры: отсутствуют

    Подробные технические данные

    Самый маленький кролик - Happy, the Littlest Bunny (by alenavova).aviFormat : AVIFormat/Info : Audio Video InterleaveFile size : 749 MiBDuration : 44mn 53sOverall bit rate : 2 334 KbpsWriting application : VirtualDubMod 1.5.10.3 | www.virtualdub-fr.org || (build 2550/release)Writing library : VirtualDubMod build 2550/release
    VideoID : 0Format : MPEG-4 VisualFormat profile : Advanced Simple@L5Format settings, BVOP : 1Format settings, QPel : NoFormat settings, GMC : No warppointsFormat settings, Matrix : Default (MPEG)Codec ID : XVIDCodec ID/Hint : XviDDuration : 44mn 53sBit rate : 2 132 KbpsWidth : 704 pixelsHeight : 512 pixelsDisplay aspect ratio : 1.375Frame rate : 25.000 fpsColor space : YUVChroma subsampling : 4:2:0Bit depth : 8 bitsScan type : ProgressiveCompression mode : LossyBits/(Pixel*Frame) : 0.237Stream size : 684 MiB (91%)Writing library : XviD 1.2.1 (UTC 2008-12-04)
    AudioID : 1Format : AC-3Format/Info : Audio Coding 3Mode extension : CM (complete main)Format settings, Endianness : BigCodec ID : 2000Duration : 44mn 53sBit rate mode : ConstantBit rate : 192 KbpsChannel(s) : 2 channelsChannel positions : Front: L RSampling rate : 48.0 KHzBit depth : 16 bitsCompression mode : LossyStream size : 61.6 MiB (8%)Alignment : Split accross interleavesInterleave, duration : 40 ms (1.00 video frame)Interleave, preload duration : 500 ms

    Скриншоты



    _________________
    [Профиль] [ЛС]
    Показать сообщения:    
    Ответить на тему

    Текущее время: Сегодня, в 02:40

    Часовой пояс: GMT + 2



    Вы не можете начинать темы
    Вы не можете отвечать на сообщения
    Вы не можете редактировать свои сообщения
    Вы не можете удалять свои сообщения
    Вы не можете голосовать в опросах
    Вы не можете прикреплять файлы к сообщениям
    Вы не можете скачивать файлы