BitTorrentTracker PerecTracker.org
BitTorrentTracker PerecTracker.org
    
Регистрация  ·  Вход
 
 · 
Забыли пароль?

  • Полтергейст / Poltergeist (Гил Кинан / Gil Kenan) [2015, США, Канада, ужасы, триллер, BDRip] [Theatrical Cut] Dub (CEE)

    Ответить на тему
     
    Автор Сообщение

    rechyn

    Создавать темы 27-Сен-2015 18:03

           

    [Цитировать]

    Полтергейст / Poltergeist [Theatrical Cut]-Год выпуска: 2015
    Страна: США, Канада
    Жанр: ужасы, триллер
    Продолжительность: 01:33:41
    Перевод: Профессиональный (полное дублирование) СЕЕ
    Субтитры: нет-Режиссер: Гил Кинан / Gil Kenan
    В ролях: Сэм Рокуэлл, Розмари ДеУитт, Саксон Шарбино, Кайл Кэтлетт, Кеннеди Клементс, Джаред Харрис, Джейн Адамс, Сьюзэн Хэйард, Николас Браун, Карен Ивани
    О фильме: Когда страшные призраки забирают младшую дочь, семье приходится объединиться, чтобы спасти ее…-Релиз:
    Автор: sociolog_melvas
    Качество: BDRip (источник: / Blu-ray / 1080p)
    Формат: AVI
    Видео: 720x304 (2.37:1), 23,976 fps, XviD build 65 ~1761 kbps avg, 0.34 bit/pixel
    Аудио: 48 kHz, AC3 Dolby Digital, 3/2 (L,C,R,l,r) + LFE ch, ~448.00 kbps avg
    Размер: 1486.60 Mb (1/3 DVD-R)
    Скачать: Семпл-

    Кадры из фильма


    -

    Mi

    Формат : AVI
    Формат/Информация : Audio Video Interleave
    Размер файла : 1,45 Гбайт
    Продолжительность : 1 ч. 33 м.
    Общий поток : 2218 Кбит/сек
    Название фильма : Полтергейст / Poltergeist [Theatrical Cut] (2015) BDRip
    Режиссёр : sociolog_melvas
    Жанр : ужасы, триллер
    Программа кодирования : VirtualDubMod 1.5.10.2 (build 2540/release)
    Правообладатель : HQCLUB
    Примечание : 25.09.2015
    Видео
    Идентификатор : 0
    Формат : MPEG-4 Visual
    Профиль формата : Advanced Simple@L5
    Параметр BVOP формата : 1
    Параметр QPel формата : Нет
    Параметр GMC формата : Без точки перехода
    Параметр матрицы формата : Выборочная
    Идентификатор кодека : XVID
    Идентификатор кодека/Подсказка : XviD
    Продолжительность : 1 ч. 33 м.
    Битрейт : 1761 Кбит/сек
    Ширина : 720 пикселей
    Высота : 304 пикселя
    Соотношение сторон : 2,35:1
    Частота кадров : 23,976 кадра/сек
    Цветовое пространство : YUV
    Субдискретизация насыщенности : 4:2:0
    Битовая глубина : 8 бит
    Тип развёртки : Прогрессивная
    Метод сжатия : С потерями
    Бит/(Пиксели*Кадры) : 0.336
    Размер потока : 1,15 Гбайт (79%)
    Библиотека кодирования : XviD 65
    Аудио
    Идентификатор : 1
    Формат : AC-3
    Формат/Информация : Audio Coding 3
    Расширение режима : CM (complete main)
    Параметр Endianness формата : Big
    Идентификатор кодека : 2000
    Продолжительность : 1 ч. 33 м.
    Вид битрейта : Постоянный
    Битрейт : 448 Кбит/сек
    Каналы : 6 каналов
    Расположение каналов : Front: L C R, Side: L R, LFE
    Частота : 48,0 КГц
    Битовая глубина : 16 бит
    Метод сжатия : С потерями
    Размер потока : 300 Мбайт (20%)
    Выравнивание : Разделение по промежуткам
    Продолжительность промежутка : 42 мс. (1,00 видеокадр)
    Время предзагрузки промежутка : 500 мс.
    -
    Скачать .torrent

    Скачать торрент-файл бесплатно и на максимальной скорости!

    Как скачивать? · Что такое торрент? · Рейтинг и ограничения

    !ВНИМАНИЕ!
    Сайт не распространяет и не хранит электронные версии произведений, а занимается лишь лишь предоставлением доступа к создаваемому пользователями каталогу ссылок на торрент-файлы, которые содержат только списки хеш-сумм, убедительная просьба с жалобами обращаться напрямую к пользователю. Файлы для обмена на трекере предоставлены пользователями сайта, и администрация не несёт ответственности за их содержание. Просьба не заливать файлы, защищенные авторскими правами, а также файлы нелегального содержания!


    _________________
    [Профиль] [ЛС]
    Показать сообщения:    
    Ответить на тему

    Текущее время: Сегодня, в 10:43

    Часовой пояс: GMT + 2



    Вы не можете начинать темы
    Вы не можете отвечать на сообщения
    Вы не можете редактировать свои сообщения
    Вы не можете удалять свои сообщения
    Вы не можете голосовать в опросах
    Вы не можете прикреплять файлы к сообщениям
    Вы не можете скачивать файлы