BitTorrentTracker PerecTracker.org
BitTorrentTracker PerecTracker.org
    
Регистрация  ·  Вход
 
 · 
Забыли пароль?

  • Хищники / Predators (Нимрод Антал / Nimrod Antal) [2010, США, фантастика, боевик, триллер, приключения, HDTV 1080i] [Open Matte] Dub

    Ответить на тему
     
    Автор Сообщение

    Flirldrerve

    Создавать темы 27-Сен-2015 18:03

           

    [Цитировать]

    Хищники / Predators / Open Matte
    Страна: США
    Жанр: фантастика, боевик, триллер, приключения
    Год выпуска: 2010
    Продолжительность: 01:37:41
    Перевод: Профессиональный (дублированный)
    Cубтитры: нет
    Оригинальная аудиодорожка: нет
    Режиссер: Нимрод Антал / Nimrod Antal
    В ролях: Эдриан Броуди (Royce), Тофер Грейс (Edwin), Алиси Брага (Isabelle), Уолтон Гоггинс (Stans), Олег Тактаров (Nikolai), Лоренс Фишбёрн (Noland), Дэнни Трехо (Cuchillo), Луис Одзава Чангчьен (Hanzo), Махершалалхашбаз Али (Mombasa), Кэри Джонс (Tracker Predator), Брайан Стил (Berserker Predator / Falconer Predator), Дерек Мирс (Classic Predator), Аарон Ричардсон (Rocky)
    Описание: Наемник Ройс невольно вынужден возглавить группу профессионалов, выполняющих загадочную миссию на неизвестной планете. За исключением опального доктора все они — хладнокровные убийцы: наемники, гангстеры, осужденные и участники отрядов смерти — людские «хищники». Но когда их начинает систематически преследовать и истреблять невообразимое чудовище, становится очевидно, что теперь они в роли своих жертв.
    Сэмпл: http://multi-up.com/1068092
    Тип релиза: HDTV 1080i
    Контейнер: TS
    Видео: AVC, 1920x1080 (16:9), 25.000 fps, 12.1 Mbps (0.234 bit/pixel)
    Аудио: MP2, 48.0 KHz, 2 ch, 192 Kbps, CBR (Russian)

    MediaInfo

    Общее
    Идентификатор : 3 (0x3)
    Полное имя : K:\МОИ РАЗДАЧИ\Хищники.ts
    Формат : MPEG-TS
    Размер файла : 8,84 Гбайт
    Продолжительность : 1 ч. 37 м.
    Режим общего битрейта : Переменный
    Общий поток : 13,0 Мбит/сек
    Видео
    Идентификатор : 2141 (0x85D)
    Идентификатор меню : 21004 (0x520C)
    Формат : AVC
    Формат/Информация : Advanced Video Codec
    Профиль формата : Main@L4
    Параметр CABAC формата : Да
    Параметр ReFrames формата : 3 кадра
    Идентификатор кодека : 27
    Продолжительность : 1 ч. 37 м.
    Битрейт : 12,1 Мбит/сек
    Ширина : 1920 пикселей
    Высота : 1080 пикселей
    Соотношение сторон : 16:9
    Частота кадров : 25,000 кадров/сек
    Стандарт вещания : Component
    Цветовое пространство : YUV
    Субдискретизация насыщенности : 4:2:0
    Битовая глубина : 8 бит
    Тип развёртки : Чересстрочная
    Порядок развёртки : Верхнее поле первое
    Бит/(Пиксели*Кадры) : 0.234
    Размер потока : 8,27 Гбайт (94%)
    Цветовой диапазон : Limited
    Основные цвета : BT.709
    Характеристики трансфера : BT.709
    Коэффициенты матрицы : BT.709
    Аудио
    Идентификатор : 2142 (0x85E)
    Идентификатор меню : 21004 (0x520C)
    Формат : MPEG Audio
    Версия формата : Version 1
    Профиль формата : Layer 2
    Идентификатор кодека : 4
    Продолжительность : 1 ч. 37 м.
    Вид битрейта : Постоянный
    Битрейт : 192 Кбит/сек
    Каналы : 2 канала
    Частота : 48,0 КГц
    Метод сжатия : С потерями
    Размер потока : 134 Мбайт (1%)
    Язык : Russian

    Скриншоты

    Скачать .torrent

    Скачать торрент-файл бесплатно и на максимальной скорости!

    Как скачивать? · Что такое торрент? · Рейтинг и ограничения

    !ВНИМАНИЕ!
    Сайт не распространяет и не хранит электронные версии произведений, а занимается лишь лишь предоставлением доступа к создаваемому пользователями каталогу ссылок на торрент-файлы, которые содержат только списки хеш-сумм, убедительная просьба с жалобами обращаться напрямую к пользователю. Файлы для обмена на трекере предоставлены пользователями сайта, и администрация не несёт ответственности за их содержание. Просьба не заливать файлы, защищенные авторскими правами, а также файлы нелегального содержания!


    _________________
    [Профиль] [ЛС]
    Показать сообщения:    
    Ответить на тему

    Текущее время: Сегодня, в 00:23

    Часовой пояс: GMT + 2



    Вы не можете начинать темы
    Вы не можете отвечать на сообщения
    Вы не можете редактировать свои сообщения
    Вы не можете удалять свои сообщения
    Вы не можете голосовать в опросах
    Вы не можете прикреплять файлы к сообщениям
    Вы не можете скачивать файлы