BitTorrentTracker PerecTracker.org
BitTorrentTracker PerecTracker.org
    
Регистрация  ·  Вход
 
 · 
Забыли пароль?

  • Земля будущего / Tomorrowland (Брэд Бёрд / Brad Bird ) [2015, США, Испания , Фантастика, боевик, детектив, приключения, семейный, BDRip, SD (480p)] DUB + Original + sub (rus, eng)

    Ответить на тему
     
    Автор Сообщение

    rechyn

    Создавать темы 26-Сен-2015 17:00

           

    [Цитировать]

    Земля будущего / Tomorrowland
    «Представьте мир, где возможно всё»
    6.413 / 10 6.60 / 10
    -Год выпуска: 2015
    Страна: США, Испания
    Жанр: Фантастика, боевик, детектив, приключения, семейный
    Продолжительность: 02:10:03
    Перевод: Дублированный (iTunes)
    Оригинальная аудиодорожка: Есть
    Cубтитры: Русские форсированные, Русские, Английские
    Режиссёр: Брэд Бёрд
    Сценарий: Дэймон Линделоф, Брэд Бёрд, Джефф Дженсен
    Продюсер: Брэд Бёрд, Джеффри Чернов, Дэймон Линделоф
    Оператор: Клаудио Миранда
    Композитор: Майкл Джаккино
    Художник: Скотт Чамблисс, Рэмси Эйвери, Дидак Боно
    Монтаж: Уолтер Мёрч, Крэйг Вуд
    В ролях: Бритт Робертсон, Джордж Клуни, Рэффи Кэссиди, Хью Лори, Тим МакГроу, Кэтрин Хан, Кигэн-Майкл Ки, Кристофер Бауэр, Томас Робинсон, Пирс Гэнон
    Бюджет: $190 000 000
    Сборы в США: $93 436 322
    Сборы в мире: + $115 200 000 = $208 636 322
    Сборы в России: $7 346 020
    Мировая премьера: 9 мая 2015
    Премьера (РФ): 21 мая 2015, «WDSSPR»
    Релиз на DVD: 13 октября 2015, «Уолт Дисней Компани СНГ»
    Релиз на Blu-Ray: 13 октября 2015, «Уолт Дисней Компани СНГ»
    Описание: Когда в руки к молодой девушке, жаждущей новых приключений, попадает загадочный предмет, открывающий доступ в параллельную реальность, она вынуждена обратиться за помощью к циничному гению-изобретателю Фрэнку. Кейси должна убедить бывшего вундеркинда раскрыть ей тайну загадочного места, находящегося вне привычной реальности, известного как Земля будущего, и убедить Фрэнка вернуться туда, откуда его однажды изгнали…-Качество исходника: BDRemux
    Качество: BDRip
    Тип: SD (480p)
    Контейнер: M4V
    Видео: H.264, 640x388 анаморф 852x388, 2.2:1, 1 500 Kbps, 23.976 fps
    Аудио 1: Русский/Дублированный (iTunes), AAC / 2.0 / 157 Kbps / 48.0 KHz
    Аудио 2: Английский/Оригинальная дорожка , AAC / 2.0 / 158 Kbps / 48.0 KHz
    Субтитры 1: Русские форсированные
    Субтитры 2: Русские полные
    Субтитры 3: Английские полные
    -

    iTunes Meta Tags

    Sort Name: Tomorrowland
    XID: Apple:vendor_id:2015-596643
    contentID: 990865721
    Copyright: © 2015 Walt Disney Pictures
    Screenwriters: Дэймон Линделоф, Брэд Бёрд, Джефф Дженсен
    Producers: Брэд Бёрд, Джеффри Чернов, Дэймон Линделоф
    Director: Брэд Бёрд
    Cast: Бритт Робертсон, Джордж Клуни, Рэффи Кэссиди, Хью Лори, Тим МакГроу, Кэтрин Хан, Кигэн-Майкл Ки, Кристофер Бауэр, Томас Робинсон, Пирс Гэнон
    Studio: Walt Disney Pictures
    Rating Annotation: Rated PG for sequences of sci-fi action violence and peril, thematic elements, and language.
    Rating: 9
    Long Description: Когда в руки к молодой девушке, жаждущей новых приключений, попадает загадочный предмет, открывающий доступ в параллельную реальность, она вынуждена обратиться за помощью к циничному гению-изобретателю Фрэнку. Кейси должна убедить бывшего вундеркинда раскрыть ей тайну загадочного места, находящегося вне привычной реальности, известного как Земля будущего, и убедить Фрэнка вернуться туда, откуда его однажды изгнали...
    Description: Когда в руки к молодой девушке, жаждущей новых приключений, попадает загадочный предмет, открывающий доступ в параллельную реальность, она вынуждена обратиться за помощью к циничному гению-изобретателю Фрэнку. Кейси должна убедить бывшего вундеркинда раскрыть ей тайну загадочного места, находящегося вне привычной реальности, известного как Земля будущего, и убедить Фрэнка вернуться туда, откуда его однажды изгнали...
    Release Date: 2015-05-09T08:00:00Z
    Genre: Sci-Fi & Fantasy
    Artist: Brad Bird
    Name: Tomorrowland

    MediaInfo

    General
    Complete name : /Users/imac/HandBrake/Tomorrowland.(480p).(pk).m4v
    Format : MPEG-4
    Codec ID : M4V
    File size : 1.65 GiB
    Duration : 2h 10mn
    Overall bit rate mode : Variable
    Overall bit rate : 1 821 Kbps
    Movie name : Tomorrowland
    Performer : Brad Bird
    Director : Брэд Бёрд
    Actor : Бритт Робертсон / Джордж Клуни / Рэффи Кэссиди / Хью Лори / Тим МакГроу / Кэтрин Хан / Кигэн-Майкл Ки / Кристофер Бауэр / Томас Робинсон / Пирс Гэнон
    Screenplay by : Дэймон Линделоф / Брэд Бёрд / Джефф Дженсен
    Producer : Брэд Бёрд / Джеффри Чернов / Дэймон Линделоф
    Production studio : Walt Disney Pictures
    Genre : Sci-Fi & Fantasy
    ContentType : Short Film
    Description : Когда в руки к молодой девушке, жаждущей новых приключений, попадает загадочный предмет, открывающий доступ в параллельную реальность, она вынуждена обратиться за помощью к циничному гению-изобретателю Фрэнку. Кейси должна убедить бывшего вундеркинда раскрыть ей тайну загадочного места, находящегося вне привычной реальности, известного как Земля будущего, и убедить Фрэнка вернуться туда, откуда его однажды изгнали...
    Recorded date : UTC 2015-05-09 08:00:00
    Encoded date : UTC 2015-09-26 11:37:40
    Tagged date : UTC 2015-09-26 11:38:15
    Copyright : © 2015 Walt Disney Pictures
    Cover : Yes
    Rating : None
    Title/Sort : Tomorrowland
    LongDescription : Когда в руки к молодой девушке, жаждущей новых приключений, попадает загадочный предмет, открывающий доступ в параллельную реальность, она вынуждена обратиться за помощью к циничному гению-изобретателю Фрэнку. Кейси должна убедить бывшего вундеркинда раскрыть ей тайну загадочного места, находящегося вне привычной реальности, известного как Земля будущего, и убедить Фрэнка вернуться туда, откуда его однажды изгнали...
    AppleStoreCatalogID : 990865721
    Vendor : Apple:vendor_id:2015-596643
    ContentRating : mpaa|PG|200|Rated PG for sequences of sci-fi action violence and peril, thematic elements, and language.
    Video #1
    ID : 1
    Format : AVC
    Format/Info : Advanced Video Codec
    Format profile : Baseline@L3
    Format settings, CABAC : No
    Format settings, ReFrames : 2 frames
    Codec ID : avc1
    Codec ID/Info : Advanced Video Coding
    Duration : 2h 10mn
    Bit rate : 1 500 Kbps
    Width : 640 pixels
    Height : 388 pixels
    Display aspect ratio : 2.2:1
    Frame rate mode : Variable
    Frame rate : 23.976 fps
    Minimum frame rate : 23.974 fps
    Maximum frame rate : 23.981 fps
    Color space : YUV
    Chroma subsampling : 4:2:0
    Bit depth : 8 bits
    Scan type : Progressive
    Bits/(Pixel*Frame) : 0.252
    Stream size : 1.36 GiB (82%)
    Title : Main Program
    Writing library : x264 core 142 r2479 dd79a61
    Encoding settings : cabac=0 / ref=2 / deblock=1:0:0 / analyse=0x1:0x111 / me=umh / subme=6 / psy=1 / psy_rd=1.00:0.00 / mixed_ref=1 / me_range=16 / chroma_me=1 / trellis=0 / 8x8dct=0 / cqm=0 / deadzone=21,11 / fast_pskip=1 / chroma_qp_offset=-2 / threads=36 / lookahead_threads=3 / sliced_threads=0 / nr=0 / decimate=1 / interlaced=0 / bluray_compat=0 / constrained_intra=0 / bframes=0 / weightp=0 / keyint=240 / keyint_min=24 / scenecut=40 / intra_refresh=0 / rc_lookahead=40 / rc=2pass / mbtree=1 / bitrate=1500 / ratetol=1.0 / qcomp=0.60 / qpmin=0 / qpmax=69 / qpstep=4 / cplxblur=20.0 / qblur=0.5 / vbv_maxrate=5000 / vbv_bufsize=5000 / nal_hrd=none / filler=0 / ip_ratio=1.40 / aq=1:1.00
    Language : English
    Encoded date : UTC 2015-09-26 11:37:40
    Tagged date : UTC 2015-09-26 11:37:45
    Color range : Limited
    Color primaries : BT.709
    Transfer characteristics : BT.709
    Matrix coefficients : BT.709
    Video #2
    ID : 8
    Format : JPEG
    Codec ID : jpeg
    Duration : 2h 10mn
    Bit rate mode : Variable
    Bit rate : 543 bps
    Width : 640 pixels
    Height : 291 pixels
    Display aspect ratio : 2.2:1
    Frame rate mode : Variable
    Frame rate : 0.002 fps
    Minimum frame rate : 0.001 fps
    Maximum frame rate : 0.004 fps
    Color space : YUV
    Chroma subsampling : 4:2:0
    Bit depth : 8 bits
    Compression mode : Lossy
    Bits/(Pixel*Frame) : 1.458
    Stream size : 497 KiB (0%)
    Language : English
    Encoded date : UTC 2015-09-26 11:37:50
    Tagged date : UTC 2015-09-26 11:37:50
    Audio #1
    ID : 2
    Format : AAC
    Format/Info : Advanced Audio Codec
    Format profile : LC
    Codec ID : 40
    Duration : 2h 10mn
    Bit rate mode : Variable
    Bit rate : 157 Kbps
    Maximum bit rate : 227 Kbps
    Channel(s) : 2 channels
    Channel positions : Front: L R
    Sampling rate : 48.0 KHz
    Compression mode : Lossy
    Stream size : 146 MiB (9%)
    Title : Russian Stereo
    Language : Russian
    Encoded date : UTC 2015-09-26 11:37:40
    Tagged date : UTC 2015-09-26 11:37:47
    Audio #2
    ID : 3
    Format : AAC
    Format/Info : Advanced Audio Codec
    Format profile : LC
    Codec ID : 40
    Duration : 2h 10mn
    Bit rate mode : Variable
    Bit rate : 158 Kbps
    Maximum bit rate : 249 Kbps
    Channel(s) : 2 channels
    Channel positions : Front: L R
    Sampling rate : 48.0 KHz
    Compression mode : Lossy
    Stream size : 147 MiB (9%)
    Title : English Stereo
    Language : English
    Encoded date : UTC 2015-09-26 11:37:40
    Tagged date : UTC 2015-09-26 11:37:47
    Text #1
    ID : 4
    Format : Timed Text
    Muxing mode : sbtl
    Codec ID : tx3g
    Duration : 47mn 34s
    Bit rate mode : Variable
    Bit rate : 1 bps
    Stream size : 204 Bytes (0%)
    Title : Russian forced
    Language : Russian
    Encoded date : UTC 2015-09-26 11:37:40
    Tagged date : UTC 2015-09-26 11:37:41
    Text #2
    ID : 5
    Format : Timed Text
    Muxing mode : sbtl
    Codec ID : tx3g
    Duration : 1h 59mn
    Bit rate mode : Variable
    Bit rate : 84 bps
    Stream size : 73.6 KiB (0%)
    Title : Russian full
    Language : Russian
    Encoded date : UTC 2015-09-26 11:37:40
    Tagged date : UTC 2015-09-26 11:37:47
    Text #3
    ID : 6
    Format : Timed Text
    Muxing mode : sbtl
    Codec ID : tx3g
    Duration : 1h 59mn
    Bit rate mode : Variable
    Bit rate : 55 bps
    Stream size : 48.2 KiB (0%)
    Title : English full
    Language : English
    Encoded date : UTC 2015-09-26 11:37:40
    Tagged date : UTC 2015-09-26 11:37:47
    Menu #1
    00:00:00.000 : Chapter 1
    00:16:12.096 : Chapter 2
    00:21:56.649 : Chapter 3
    00:28:52.272 : Chapter 4
    00:37:37.130 : Chapter 5
    00:46:35.501 : Chapter 6
    00:55:01.131 : Chapter 7
    01:11:47.553 : Chapter 8
    01:19:18.170 : Chapter 9
    01:26:45.117 : Chapter 10
    01:30:57.786 : Chapter 11
    01:38:05.379 : Chapter 12
    01:49:50.584 : Chapter 13
    01:56:11.381 : Chapter 14
    02:01:27.030 : Chapter 15
    Menu #2
    ID : 7
    Codec ID : text
    Duration : 2h 10mn
    Language : English
    Encoded date : UTC 2015-09-26 11:37:47
    Tagged date : UTC 2015-09-26 11:37:47
    00:00:00.000 : Chapter 1
    00:16:12.096 : Chapter 2
    00:21:56.649 : Chapter 3
    00:28:52.272 : Chapter 4
    00:37:37.130 : Chapter 5
    00:46:35.501 : Chapter 6
    00:55:01.131 : Chapter 7
    01:11:47.553 : Chapter 8
    01:19:18.170 : Chapter 9
    01:26:45.117 : Chapter 10
    01:30:57.786 : Chapter 11
    01:38:05.379 : Chapter 12
    01:49:50.584 : Chapter 13
    01:56:11.381 : Chapter 14
    02:01:27.030 : Chapter 15
    Bit rate mode : VBR

    x264 лог

    x264 [info]: frame I:3868  Avg QP:17.81  size: 24960
    x264 [info]: frame P:183224 Avg QP:20.18  size:  7455
    x264 [info]: mb I  I16..4: 29.6%  0.0% 70.4%
    x264 [info]: mb P  I16..4:  1.5%  0.0%  4.2%  P16..4: 42.9% 19.4%  8.3%  0.0%  0.0%    skip:23.7%
    x264 [info]: coded y,uvDC,uvAC intra: 63.5% 74.7% 46.9% inter: 25.5% 21.4% 5.2%
    x264 [info]: i16 v,h,dc,p: 40% 17%  8% 34%
    x264 [info]: i4 v,h,dc,ddl,ddr,vr,hd,vl,hu: 34% 15% 13%  6%  7%  8%  6%  7%  5%
    x264 [info]: i8c dc,h,v,p: 49% 16% 26%  9%
    x264 [info]: ref P L0: 74.6% 25.4%
    x264 [info]: kb/s:1499.36

    Скриншоты

    -

    Релиз подготовлен для просмотра на Apple TV, iPad, iPhone, iPod Touch.
    Для просмотра данного релиза на компьютере с ОС Windows рекомендуется использовать VLC media player
    Скачать .torrent

    Скачать торрент-файл бесплатно и на максимальной скорости!

    Как скачивать? · Что такое торрент? · Рейтинг и ограничения

    !ВНИМАНИЕ!
    Сайт не распространяет и не хранит электронные версии произведений, а занимается лишь лишь предоставлением доступа к создаваемому пользователями каталогу ссылок на торрент-файлы, которые содержат только списки хеш-сумм, убедительная просьба с жалобами обращаться напрямую к пользователю. Файлы для обмена на трекере предоставлены пользователями сайта, и администрация не несёт ответственности за их содержание. Просьба не заливать файлы, защищенные авторскими правами, а также файлы нелегального содержания!


    _________________
    [Профиль] [ЛС]
    Показать сообщения:    
    Ответить на тему

    Текущее время: Сегодня, в 11:52

    Часовой пояс: GMT + 2



    Вы не можете начинать темы
    Вы не можете отвечать на сообщения
    Вы не можете редактировать свои сообщения
    Вы не можете удалять свои сообщения
    Вы не можете голосовать в опросах
    Вы не можете прикреплять файлы к сообщениям
    Вы не можете скачивать файлы