BitTorrentTracker PerecTracker.org
BitTorrentTracker PerecTracker.org
    
Регистрация  ·  Вход
 
 · 
Забыли пароль?

  • Шеф-3 / Серии: 1-32 из 32 (Олег Ларин) [2015, Драма, криминал, SATRip-AVC]

    Ответить на тему
     
    Автор Сообщение

    rechyn

    Создавать темы 26-Сен-2015 15:30

           

    [Цитировать]

    Шеф. Новая жизньГод выпуска: 2015
    Производство: Россия, Триикс Медиа
    Жанр: Драма, криминал
    Продолжительность: 00:45:00
    Субтитры: нет
    Режиссёр: Олег Ларин
    В ролях: Андрей Чубченко, Анна Табанина, Кирилл Полухин, Александр Рыбаков, Сергей Бледных, Кирилл Рубцов, Дмитрий Сутырин, Юрий Сысоев, Андрей Чуманов, Геннадий Смирнов, Олег Метелев, Антон Пулит, Янина Бушина.
    Описание: Полковник Виктор Расторгуев вместе с семьей включен в программу защиты свидетелей: чтобы его не вычислили, он вынужден менять города, квартиры, фамилии, биографии. Осев в маленьком городке на севере России, Расторгуев изо всех сил пытается забыть о прошлом и начать новую жизнь, но несправедливость и преступность есть везде.Чтобы прокормить семью, Виктор готов браться за любую работу. Как-то раз сосед по лестничной клетке предложил Расторгуеву организовать небольшой автосервис. Тот согласился, но неожиданно их бизнес оказался в центре местных криминальных разборок. Расторгуеву придется встать на защиту интересов своей семьи. А когда в городке начинают звучать выстрелы и от рук бандитов гибнут простые горожане, Расторгуев понимает, что просто не может оставаться в стороне. Он знает: на этот раз ему придется действовать исключительно как частное лицо и вряд ли получится держаться в рамках закона…
    Качество: SATRip
    Формат: MKV
    Видео кодек: H.264
    Аудио кодек: AC3
    Видео: MPEG4 Video (H264), 720x400, 25fps,1720 Kbps,bit/pixel 0.212
    Аудио: AC3 48000Hz, stereo, 192kbps,2 ch

    MI

    Общее
    Уникальный идентификатор : 195343317313386622237420406570026209519 (0x92F5C121FED39A40BF16780CD5FB10EF)
    Полное имя : F:\Шеф. Новая жизнь серия.mkv
    Формат : Matroska
    Версия формата : Version 2
    Размер файла : 551 Мбайт
    Продолжительность : 44 м.
    Общий поток : 1721 Кбит/сек
    Дата кодирования : UTC 2015-09-14 18:22:20
    Программа кодирования : mkvmerge v6.1.0 ('Old Devil') built on Mar 4 2013 09:10:42
    Библиотека кодирования : libebml v1.3.0 + libmatroska v1.4.0
    Видео
    Идентификатор : 1
    Формат : AVC
    Формат/Информация : Advanced Video Codec
    Профиль формата : High@L4.1
    Параметр CABAC формата : Да
    Параметр ReFrames формата : 9 кадров
    Идентификатор кодека : V_MPEG4/ISO/AVC
    Продолжительность : 44 м.
    Битрейт : 1527 Кбит/сек
    Ширина : 720 пикселей
    Высота : 400 пикселей
    Соотношение сторон : 16:9
    Режим частоты кадров : Постоянный
    Частота кадров : 25,000 кадров/сек
    Цветовое пространство : YUV
    Субдискретизация насыщенности : 4:2:0
    Битовая глубина : 8 бит
    Тип развёртки : Прогрессивная
    Бит/(Пиксели*Кадры) : 0.212
    Размер потока : 478 Мбайт (87%)
    Библиотека кодирования : x264 core 130 r2273 b3065e6
    Настройки программы : cabac=1 / ref=9 / deblock=1:-3:-3 / analyse=0x3:0x112 / me=umh / subme=9 / psy=1 / psy_rd=1.00:0.00 / mixed_ref=0 / me_range=16 / chroma_me=1 / trellis=2 / 8x8dct=1 / cqm=0 / deadzone=21,11 / fast_pskip=1 / chroma_qp_offset=-2 / threads=2 / lookahead_threads=4 / sliced_threads=0 / nr=0 / decimate=1 / interlaced=0 / bluray_compat=0 / constrained_intra=0 / bframes=9 / b_pyramid=2 / b_adapt=2 / b_bias=0 / direct=3 / weightb=1 / open_gop=0 / weightp=2 / keyint=250 / keyint_min=25 / scenecut=40 / intra_refresh=0 / rc_lookahead=40 / rc=2pass / mbtree=1 / bitrate=1527 / ratetol=1.0 / qcomp=0.60 / qpmin=0 / qpmax=69 / qpstep=4 / cplxblur=20.0 / qblur=0.5 / ip_ratio=1.40 / aq=1:1.00
    Default : Да
    Forced : Нет
    Цветовой диапазон : Limited
    Основные цвета : BT.601 PAL
    Характеристики трансфера : BT.470 System B, BT.470 System G
    Коэффициенты матрицы : BT.601
    Аудио
    Идентификатор : 2
    Формат : AC-3
    Формат/Информация : Audio Coding 3
    Расширение режима : CM (complete main)
    Параметр Endianness формата : Big
    Идентификатор кодека : A_AC3
    Продолжительность : 44 м.
    Вид битрейта : Постоянный
    Битрейт : 192 Кбит/сек
    Каналы : 2 канала
    Расположение каналов : Front: L R
    Частота : 48,0 КГц
    Метод сжатия : С потерями
    Размер потока : 61,4 Мбайт (11%)
    Default : Да
    Forced : Нет

    Скриншоты

    Рекламы нет.
    Скачать .torrent

    Скачать торрент-файл бесплатно и на максимальной скорости!

    Как скачивать? · Что такое торрент? · Рейтинг и ограничения

    !ВНИМАНИЕ!
    Сайт не распространяет и не хранит электронные версии произведений, а занимается лишь лишь предоставлением доступа к создаваемому пользователями каталогу ссылок на торрент-файлы, которые содержат только списки хеш-сумм, убедительная просьба с жалобами обращаться напрямую к пользователю. Файлы для обмена на трекере предоставлены пользователями сайта, и администрация не несёт ответственности за их содержание. Просьба не заливать файлы, защищенные авторскими правами, а также файлы нелегального содержания!


    _________________
    [Профиль] [ЛС]
    Показать сообщения:    
    Ответить на тему

    Текущее время: Сегодня, в 00:25

    Часовой пояс: GMT + 2



    Вы не можете начинать темы
    Вы не можете отвечать на сообщения
    Вы не можете редактировать свои сообщения
    Вы не можете удалять свои сообщения
    Вы не можете голосовать в опросах
    Вы не можете прикреплять файлы к сообщениям
    Вы не можете скачивать файлы