BitTorrentTracker PerecTracker.org
BitTorrentTracker PerecTracker.org
    
Регистрация  ·  Вход
 
 · 
Забыли пароль?

  • Татьянина ночь / Сезон: 1 / Серии: 1-9 из 9 (Виктор Бутурлин) [2014, Мелодрама, WEBRip]

    Ответить на тему
     
    Автор Сообщение

    rechyn

    Создавать темы 26-Сен-2015 15:25

           

    [Цитировать]

    Татьянина ночь
    Год выпуска: 2014
    Производство: Феникс-Фильм
    Жанр: Мелодрама
    Продолжительность серии: ~00:50:00
    Субтитры: нет
    Режиссёр: Виктор Бутурлин
    В ролях: Кристина Бродская, Алексей Фатеев, Людмила Титова, Александр Феклистов, Ксения Радченко, Кристина Поли, Елена Махова, Оксана Мысина, Максим Январев, Алёна Кузнецова, Марина Куделинская, Наталья Новикова, Дмитрий Варшавский и др.
    Описание: СССР, начало 80-х годов. Живёт в Москве интеллигентная семья Голубевых: отец — профессор МГУ Александр Голубев, мама — тренер по художественной гимнастике Лариса Алексеевна, дочь — красавица и одна из лучших студенток МГУ Таня Голубева. Вскоре Таню, как одну из лучших студенток курса, приглашают на собеседование в КГБ. От сотрудничества Таня отказывается. Она не знает, что «запала в сердце» майора КГБ Юрия Рогова: тот практически влюбился в Таню с первого взгляда...

    Реклама сторонних ресурсов отсутствует!
    Качество: WEBRip
    Формат: AVI
    Видеокодек: XviD
    Аудиокодек: AC-3
    Видео: | ~1800 kbps | 720x400 | 25.000 fps | 16:9 | 0.262 bit/pixel | XviD
    Аудио: | 2.0 | 48 kHz | 192 kbps | 16-bit | AC-3
    Сэмпл

    MediaInfoXP

    General
    Complete name : H:\Передачи и сериалы\Татьянина ночь\Татьянина ночь - 01.avi
    Format : AVI
    Format/Info : Audio Video Interleave
    File size : 699 MiB
    Duration : 46mn 50s
    Overall bit rate : 2 087 Kbps
    Writing application : VirtualDubMod 1.5.10.2 (build 2540/release)
    Writing library : VirtualDubMod build 2540/release
    Video
    ID : 0
    Format : MPEG-4 Visual
    Format profile : Advanced Simple@L5
    Format settings, BVOP : 1
    Format settings, QPel : No
    Format settings, GMC : No warppoints
    Format settings, Matrix : Custom
    Codec ID : XVID
    Codec ID/Hint : XviD
    Duration : 46mn 50s
    Bit rate : 1 885 Kbps
    Width : 720 pixels
    Height : 400 pixels
    Display aspect ratio : 16:9
    Frame rate : 25.000 fps
    Color space : YUV
    Chroma subsampling : 4:2:0
    Bit depth : 8 bits
    Scan type : Progressive
    Compression mode : Lossy
    Bits/(Pixel*Frame) : 0.262
    Stream size : 631 MiB (90%)
    Writing library : XviD 1.2.1 (UTC 2008-12-04)
    Audio
    ID : 1
    Format : AC-3
    Format/Info : Audio Coding 3
    Mode extension : CM (complete main)
    Format settings, Endianness : Big
    Codec ID : 2000
    Duration : 46mn 50s
    Bit rate mode : Constant
    Bit rate : 192 Kbps
    Channel(s) : 2 channels
    Channel positions : Front: L R
    Sampling rate : 48.0 KHz
    Compression mode : Lossy
    Stream size : 64.3 MiB (9%)
    Alignment : Split accross interleaves
    Interleave, duration : 40 ms (1.00 video frame)
    Interleave, preload duration : 500 ms

    Скриншоты

    Скачать .torrent

    Скачать торрент-файл бесплатно и на максимальной скорости!

    Как скачивать? · Что такое торрент? · Рейтинг и ограничения

    !ВНИМАНИЕ!
    Сайт не распространяет и не хранит электронные версии произведений, а занимается лишь лишь предоставлением доступа к создаваемому пользователями каталогу ссылок на торрент-файлы, которые содержат только списки хеш-сумм, убедительная просьба с жалобами обращаться напрямую к пользователю. Файлы для обмена на трекере предоставлены пользователями сайта, и администрация не несёт ответственности за их содержание. Просьба не заливать файлы, защищенные авторскими правами, а также файлы нелегального содержания!


    _________________
    [Профиль] [ЛС]
    Показать сообщения:    
    Ответить на тему

    Текущее время: Сегодня, в 01:59

    Часовой пояс: GMT + 2



    Вы не можете начинать темы
    Вы не можете отвечать на сообщения
    Вы не можете редактировать свои сообщения
    Вы не можете удалять свои сообщения
    Вы не можете голосовать в опросах
    Вы не можете прикреплять файлы к сообщениям
    Вы не можете скачивать файлы