BitTorrentTracker PerecTracker.org
BitTorrentTracker PerecTracker.org
    
Регистрация  ·  Вход
 
 · 
Забыли пароль?

  • Десница Бога / Hand of God / Сезон: 1 / Серии: 1-10 из 10 (Марк Форстер) [2014, Драма, WEBRip] MVO (BaibaKo) + Original

    Ответить на тему
     
    Автор Сообщение

    rechyn

    Создавать темы 26-Сен-2015 15:22

           

    [Цитировать]

    Десница БогаHand of God-Год выпуска: 2014
    Страна: США
    Жанр: Драма
    Продолжительность: 01:06:47
    Перевод: Профессиональный (многоголосый закадровый) BaibaKo-Режиссёр: Марк Форстер, Брэд Андерсон, Сара Пиа Андерсон-В ролях: Рон Перлман (Пернелл Харрис), Дана Дилэйни (Кристал Харрис), Андре Ройо (Роберт Бостон), Гэррет Диллахант (Кит Деннисон), Алона Тал (Джоселин Харрис), Джулиан Моррис (преподобный Пол Кертис), Джонни Ферро (Пи Джей Харрис)-Описание: Влиятельный судья Харрис начинает получать божественные откровения с видениями и слышать голоса через своего сына, прикованного к дыхательному аппарату. Именно эти знаки помогут судье покарать преступников, причинивших горе его семье.-Доп. информация: Без рекламных ВидеоАудио вставок--Качество: WEBRip
    Формат: AVI
    Видео: XviD, 720x400 (16:9), 23,976 fps, ~1500 kbps
    Аудио:Rus. MP3, 48 kHz, 2 ch, 128 kbps
    Аудио:Eng. MP3, 48 kHz, 2 ch, 128 kbps
    Субтитры: отсутствуют
    Сэмпл

    Список серий

    01. Пилот
    02. Ваш внутренний голос Your Inside Voice
    03. Созерцая тело Contemplating the Body
    04. Он так любил He so Loved
    05. Добро пожаловать незнакомец Welcome the stranger

    MediaInfo

    Полное имя                               : Hand of God.S01.WEBRip.RusEng.BaibaKo\Hand of God.S01E01.WEBRip.RusEng.BaibaKo.L.avi
    Формат                                   : AVI
    Формат/Информация                        : Audio Video Interleave
    Размер файла                             : 851 Мбайт
    Продолжительность                        : 1 ч. 6 м.
    Общий поток                              : 1781 Кбит/сек
    Программа кодирования                    : VirtualDubMod 1.5.10.3 (build 2550/release)
    Библиотека кодирования                   : VirtualDubMod build 2550/release
    Видео
    Идентификатор                            : 0
    Формат                                   : MPEG-4 Visual
    Профиль формата                          : Advanced Simple@L5
    Параметр BVOP формата                    : 1
    Параметр QPel формата                    : Нет
    Параметр GMC формата                     : Без точки перехода
    Параметр матрицы формата                 : Default (H.263)
    Идентификатор кодека                     : XVID
    Идентификатор кодека/Подсказка           : XviD
    Продолжительность                        : 1 ч. 6 м.
    Битрейт                                  : 1511 Кбит/сек
    Ширина                                   : 720 пикселей
    Высота                                   : 400 пикселей
    Соотношение сторон                       : 16:9
    Частота кадров                           : 23,976 кадра/сек
    Цветовое пространство                    : YUV
    Субдискретизация насыщенности            : 4:2:0
    Битовая глубина                          : 8 бит
    Тип развёртки                            : Прогрессивная
    Метод сжатия                             : С потерями
    Бит/(Пиксели*Кадры)                      : 0.219
    Размер потока                            : 722 Мбайт (85%)
    Библиотека кодирования                   : XviD 1.2.1 (UTC 2008-12-04)
    Аудио #1
    Идентификатор                            : 1
    Формат                                   : MPEG Audio
    Версия формата                           : Version 1
    Профиль формата                          : Layer 3
    Режим                                    : Joint stereo
    Расширение режима                        : MS Stereo
    Идентификатор кодека                     : 55
    Идентификатор кодека/Подсказка           : MP3
    Продолжительность                        : 1 ч. 6 м.
    Вид битрейта                             : Постоянный
    Битрейт                                  : 128 Кбит/сек
    Каналы                                   : 2 канала
    Частота                                  : 48,0 КГц
    Метод сжатия                             : С потерями
    Размер потока                            : 61,2 Мбайт (7%)
    Выравнивание                             : Соединение по промежуткам
    Продолжительность промежутка             : 42  мс. (1,00 видеокадр)
    Время предзагрузки промежутка            : 504  мс.
    Аудио #2
    Идентификатор                            : 2
    Формат                                   : MPEG Audio
    Версия формата                           : Version 1
    Профиль формата                          : Layer 3
    Режим                                    : Joint stereo
    Расширение режима                        : MS Stereo
    Идентификатор кодека                     : 55
    Идентификатор кодека/Подсказка           : MP3
    Продолжительность                        : 1 ч. 6 м.
    Вид битрейта                             : Постоянный
    Битрейт                                  : 128 Кбит/сек
    Каналы                                   : 2 канала
    Частота                                  : 48,0 КГц
    Метод сжатия                             : С потерями
    Размер потока                            : 61,2 Мбайт (7%)
    Выравнивание                             : Соединение по промежуткам
    Продолжительность промежутка             : 42  мс. (1,00 видеокадр)
    Время предзагрузки промежутка            : 504  мс.

    Скриншоты

    Скачать .torrent

    Скачать торрент-файл бесплатно и на максимальной скорости!

    Как скачивать? · Что такое торрент? · Рейтинг и ограничения

    !ВНИМАНИЕ!
    Сайт не распространяет и не хранит электронные версии произведений, а занимается лишь лишь предоставлением доступа к создаваемому пользователями каталогу ссылок на торрент-файлы, которые содержат только списки хеш-сумм, убедительная просьба с жалобами обращаться напрямую к пользователю. Файлы для обмена на трекере предоставлены пользователями сайта, и администрация не несёт ответственности за их содержание. Просьба не заливать файлы, защищенные авторскими правами, а также файлы нелегального содержания!


    _________________
    [Профиль] [ЛС]
    Показать сообщения:    
    Ответить на тему

    Текущее время: Сегодня, в 12:45

    Часовой пояс: GMT + 2



    Вы не можете начинать темы
    Вы не можете отвечать на сообщения
    Вы не можете редактировать свои сообщения
    Вы не можете удалять свои сообщения
    Вы не можете голосовать в опросах
    Вы не можете прикреплять файлы к сообщениям
    Вы не можете скачивать файлы