BitTorrentTracker PerecTracker.org
BitTorrentTracker PerecTracker.org
    
Регистрация  ·  Вход
 
 · 
Забыли пароль?

  • Леди и бродяга 2: Приключения Шалуна / Lady and the Tramp II: Scamp\'s Adventure (Даррел Руни, Джаннин Пассел / Darrell Rooney, Jeannine Roussel) [2001, приключения, семейный, BDRip] AVO (Визгунов)

    Ответить на тему
     
    Автор Сообщение

    rechyn

    Создавать темы 25-Сен-2015 07:12

           

    [Цитировать]

    Леди и бродяга 2: Приключения Шалуна / Lady and the Tramp II: Scamp's Adventure
    Страна: США, Австралия
    Жанр: приключения, семейный
    Продолжительность: 01:09:02
    Год выпуска: 2001
    Перевод: Авторский (одноголосый закадровый)
    Русские субтитры: нет
    Режиссёр: Даррел Руни, Джаннин Пассел / Darrell Rooney, Jeannine Roussel
    Роли озвучивали: Скотт Вулф, Алисса Милано, Чазз Пальминтери, Джефф Беннетт, Джоди Бенсон, Билл Фагербакки, Микки Руни, Бронсон Пинчот, Кэти Мориарти, Мэри Кэй Бергман
    Описание: Продолжение всеми любимого мультфильма "Леди и Бродяга".
    Прошло 6 месяцев с тех пор, как Леди и Бродяга счастливо зажили в любимом доме в Новой Англии. У них появились очаровательные малыши: девочки - Анетта, Коллета и Даниэлла, и мальчик - Скэмп. Как и все мальчишки, Скэмп был шалунишкой и озорником. А озорство, как известно, до добра не доводит. Сбежав погулять, Скэмп попадает на улицу. Там его ждут страшные опасности и захватывающие приключения...
    Доп. информация: За разрешение использовать видео - спасибо dragomire.
    За синхронизацию - спасибо randos2009.
    Исходник аудио и оцифровка - Aflame 300.
    Семпл: http://sendfile.su/1157655
    Качество: BDRip
    Формат: AVI
    Видео: 688x384 (1.79:1), 23,976 fps, XviD 63 ~1 375 kbps avg, 0.22 bit/pixel
    Аудио: AC-3, 48.0 kHz, 2 (L,R) ch, 192 kbps
    Субтитры: отсутствуют

    Подробные технические данные

    ОбщееПолное имя : F:\Data Base\The Films\Cartoons\Lady and Tramp 2\Lady.and.the.Tramp.II.Scamp's.Adventure.aviФормат : AVIФормат/Информация : Audio Video InterleaveРазмер файла : 778 МбайтПродолжительность : 1 ч. 9 м.Общий поток : 1576 Кбит/секПрограмма кодирования : VirtualDubMod 1.5.10.2 (build 2540/release)Библиотека кодирования : VirtualDubMod build 2540/release
    ВидеоИдентификатор : 0Формат : MPEG-4 VisualПрофиль формата : Advanced Simple@L5Параметр BVOP формата : 1Параметр QPel формата : НетПараметр GMC формата : Без точки переходаПараметр матрицы формата : ВыборочнаяИдентификатор кодека : XVIDИдентификатор кодека/Подсказка : XviDПродолжительность : 1 ч. 9 м.Битрейт : 1375 Кбит/секШирина : 688 пикселейВысота : 384 пикселяСоотношение сторон : 16:9Частота кадров : 23,976 кадра/секЦветовое пространство : YUVСубдискретизация насыщенности : 4:2:0Битовая глубина : 8 битТип развёртки : ПрогрессивнаяМетод сжатия : С потерямиБит/(Пиксели*Кадры) : 0.217Размер потока : 679 Мбайт (87%)Библиотека кодирования : XviD 63
    АудиоИдентификатор : 1Формат : AC-3Формат/Информация : Audio Coding 3Расширение режима : CM (complete main)Параметр Endianness формата : BigИдентификатор кодека : 2000Продолжительность : 1 ч. 9 м.Вид битрейта : ПостоянныйБитрейт : 192 Кбит/секКаналы : 2 каналаРасположение каналов : Front: L RЧастота : 48,0 КГцБитовая глубина : 16 битМетод сжатия : С потерямиЗадержка видео : 1 с. 0 мс.Размер потока : 94,8 Мбайт (12%)Выравнивание : Разделение по промежуткамПродолжительность промежутка : 42 мс. (1,00 видеокадр)Время предзагрузки промежутка : 500 мс.

    Скриншоты




    Скачать .torrent

    Скачать торрент-файл бесплатно и на максимальной скорости!

    Как скачивать? · Что такое торрент? · Рейтинг и ограничения

    !ВНИМАНИЕ!
    Сайт не распространяет и не хранит электронные версии произведений, а занимается лишь лишь предоставлением доступа к создаваемому пользователями каталогу ссылок на торрент-файлы, которые содержат только списки хеш-сумм, убедительная просьба с жалобами обращаться напрямую к пользователю. Файлы для обмена на трекере предоставлены пользователями сайта, и администрация не несёт ответственности за их содержание. Просьба не заливать файлы, защищенные авторскими правами, а также файлы нелегального содержания!


    _________________
    [Профиль] [ЛС]
    Показать сообщения:    
    Ответить на тему

    Текущее время: Сегодня, в 01:50

    Часовой пояс: GMT + 2



    Вы не можете начинать темы
    Вы не можете отвечать на сообщения
    Вы не можете редактировать свои сообщения
    Вы не можете удалять свои сообщения
    Вы не можете голосовать в опросах
    Вы не можете прикреплять файлы к сообщениям
    Вы не можете скачивать файлы