BitTorrentTracker PerecTracker.org
BitTorrentTracker PerecTracker.org
    
Регистрация  ·  Вход
 
 · 
Забыли пароль?

  • Как у себя дома / Будьте как дома / Comme chez soi (Лоренцо Габриэль / Lorenzo Gabriele) [2011, Франция, комедия, DVB -> DVD] Original (Fre) + Sub (Rus, Eng, Fre, Deu)

    Ответить на тему
     
    Автор Сообщение

    Light

    Создавать темы 25-Сен-2015 07:12

           

    [Цитировать]

    Как у себя дома
    Comme chez soi-Страна: Франция
    Жанр: комедия
    Год выпуска: 2011
    Продолжительность: 01:26:57Перевод: Профессиональный (двухголосый закадровый) ТПО "Ред Медиа" по заказу канала HD Life; русские субтитры Г.Мирзоевой (Éclair Group)
    Cубтитры: русские, английские, французские, немецкие, нидерландские, румынские
    Оригинальная аудиодорожка: французский
    Режиссер: Лоренцо Габриэль / Lorenzo Gabriele
    В ролях: Элис Тьельруа / Élise Tielrooy (Cécile), Филипп Лефевр / Philippe Lefebvre (Marc), Седеф Эсер / Sedef Ecer (Banu), Ёс Нюжен / Özz Nûjen (Burhan), Шемс Ода / Shemss Audat (Defné), Максим Когьо / Maxime Coggio (Victor), Камиль Вершюэр / Camille Verschuere (Betty), Ханна Коэн / Hanna Cohen (Miné)
    Описание: Французская семья на время отпуска меняется своим домом с турецкой семьей. Но в последний момент отец узнает, что началась реорганизация фирмы и он может потерять работу. Уже слишком поздно отменять сделку. По согласованию сторон начинается своеобразное "сожительство" двух семей под одной крышей, причем, длится оно дольше, чем планировалось вначале…
    Доп. информация: Hot Bird (13.0°E) TV5MONDE Europe DVB-S. Во время диалогов не по-французски на экране дополнительно вшитые французские субтитры. Русская озвучка взята с раздачи HDTV 1080i.
    Награды: номинация Festival de la fiction TV de la Rochelle 2011 на лучшую телевизионную комедию.

    Качество видео: DVB
    Формат видео: DVD Video
    Видео: MPEG Video 2, 720x576@1024x576 (16:9), 25 fps, ~3222 kbps avg, 0.311 bit/pixel
    Аудио 1: AC3, 2 ch, 48 kHz, 192.00 kbps - русский
    Аудио 2: MPEG Audio 2, 2 ch, 48 kHz, 192.00 kbps - французский
    Формат субтитров: prerendered (IDX+SUB)

    MediaInfo

    Title: [apreder]Comme_chez_soi(2011)DVBSize: 2.23 Gb ( 2 343 050,00 KBytes ) - DVD-5Enabled regions: 1, 2, 3, 4, 5, 6, 7, 8
    VTS_01 : Play Length: 01:26:57 Video: PAL 16:9 (720x576) VBR, Auto Letterboxed Audio: Russian (Dolby AC3, 2 ch) Francais (MPEG1, 2 ch) Subtitles: Russian English Francais Deutsch Nederlands Romanian
    ОбщееПолное имя : F:\My Torrents 3\[apreder]Comme_chez_soi(2011)DVB\VIDEO_TS\VTS_01_1.VOBФормат : MPEG-PSРазмер файла : 1024 МбайтПродолжительность : 38 м.Режим общего битрейта : ПеременныйОбщий поток : 3679 Кбит/сек
    ВидеоИдентификатор : 224 (0xE0)Формат : MPEG VideoВерсия формата : Version 2Профиль формата : Main@MainПараметр BVOP формата : ДаПараметр матрицы формата : ВыборочнаяПараметр GOP формата : M=4, N=12Format_Settings_PictureStructure : FrameПродолжительность : 38 м.Вид битрейта : ПеременныйБитрейт : 3222 Кбит/секШирина : 720 пикселейВысота : 576 пикселейСоотношение сторон : 16:9Частота кадров : 25,000 кадров/секСтандарт вещания : PALЦветовое пространство : YUVСубдискретизация насыщенности : 4:2:0Битовая глубина : 8 битТип развёртки : ЧересстрочнаяПорядок развёртки : Верхнее поле первоеМетод сжатия : С потерямиБит/(Пиксели*Кадры) : 0.311Временной код первого кадра : 00:00:00:00Оригинал временного кода : Group of pictures headerРазмер потока : 897 Мбайт (88%)
    Аудио #1Идентификатор : 193 (0xC1)Формат : MPEG AudioВерсия формата : Version 1Профиль формата : Layer 2Режим : Joint stereoРасширение режима : Intensity Stereo + MS StereoПродолжительность : 38 м.Вид битрейта : ПостоянныйБитрейт : 192 Кбит/секКаналы : 2 каналаЧастота : 48,0 КГцМетод сжатия : С потерямиРазмер потока : 53,4 Мбайт (5%)
    Аудио #2Идентификатор : 189 (0xBD)-128 (0x80)Формат : AC-3Формат/Информация : Audio Coding 3Расширение режима : CM (complete main)Параметр Endianness формата : BigРежим смешивания : DVD-VideoПродолжительность : 38 м.Вид битрейта : ПостоянныйБитрейт : 192 Кбит/секКаналы : 2 каналаРасположение каналов : Front: L RЧастота : 48,0 КГцМетод сжатия : С потерямиРазмер потока : 53,4 Мбайт (5%)
    Текст #1Идентификатор : 189 (0xBD)-32 (0x20)Формат : RLEФормат/Информация : Run-length encodingРежим смешивания : DVD-VideoПродолжительность : 38 м.Задержка видео : 3 с. 880 мс.
    Текст #2Идентификатор : 189 (0xBD)-33 (0x21)Формат : RLEФормат/Информация : Run-length encodingРежим смешивания : DVD-VideoПродолжительность : 38 м.Задержка видео : 3 с. 840 мс.
    Текст #3Идентификатор : 189 (0xBD)-34 (0x22)Формат : RLEФормат/Информация : Run-length encodingРежим смешивания : DVD-VideoПродолжительность : 38 м.Задержка видео : 8 с. 480 мс.
    Текст #4Идентификатор : 189 (0xBD)-35 (0x23)Формат : RLEФормат/Информация : Run-length encodingРежим смешивания : DVD-VideoПродолжительность : 38 м.Задержка видео : 3 с. 840 мс.
    Текст #5Идентификатор : 189 (0xBD)-36 (0x24)Формат : RLEФормат/Информация : Run-length encodingРежим смешивания : DVD-VideoПродолжительность : 38 м.Задержка видео : 3 с. 840 мс.
    Текст #6Идентификатор : 189 (0xBD)-37 (0x25)Формат : RLEФормат/Информация : Run-length encodingРежим смешивания : DVD-VideoПродолжительность : 38 м.Задержка видео : 3 с. 840 мс.

    Скриншот c названием фильма

    Скриншоты

    Резервные скриншоты


    -[644]
    Скачать .torrent

    Скачать торрент-файл бесплатно и на максимальной скорости!

    Как скачивать? · Что такое торрент? · Рейтинг и ограничения

    !ВНИМАНИЕ!
    Сайт не распространяет и не хранит электронные версии произведений, а занимается лишь лишь предоставлением доступа к создаваемому пользователями каталогу ссылок на торрент-файлы, которые содержат только списки хеш-сумм, убедительная просьба с жалобами обращаться напрямую к пользователю. Файлы для обмена на трекере предоставлены пользователями сайта, и администрация не несёт ответственности за их содержание. Просьба не заливать файлы, защищенные авторскими правами, а также файлы нелегального содержания!


    _________________
    [Профиль] [ЛС]
    Показать сообщения:    
    Ответить на тему

    Текущее время: Сегодня, в 00:34

    Часовой пояс: GMT + 2



    Вы не можете начинать темы
    Вы не можете отвечать на сообщения
    Вы не можете редактировать свои сообщения
    Вы не можете удалять свои сообщения
    Вы не можете голосовать в опросах
    Вы не можете прикреплять файлы к сообщениям
    Вы не можете скачивать файлы