BitTorrentTracker PerecTracker.org
BitTorrentTracker PerecTracker.org
    
Регистрация  ·  Вход
 
 · 
Забыли пароль?

  • Белый Бим Черное ухо (Станислав Ростоцкий) [1976, Драма, SATRip-AVC]

    Ответить на тему
     
    Автор Сообщение

    Light

    Создавать темы 24-Сен-2015 03:08

           

    [Цитировать]

    -Белый Бим Черное ухо-Жанр: Драма
    Год выпуска: 1976
    Продолжительность: 01:29:59 + 01:24:09-Режиссёр: Станислав Ростоцкий-В ролях: Вячеслав Тихонов, Валентина Владимирова, Михаил Дадыко, Иван Рыжов, Ирина Шевчук, Михаил Зимин, Геннадий Кочкожаров, Римма Мануковская, Мария Скворцова, Анатолий Баранцев, Виталий Леонов, Любовь Соколова, Алексей Чернов, Дмитрий Барков, Раиса Рязанова, Георгий Светлани, Владимир Сергиенко, Василий Воробьёв, Анна Рыбникова, Сережа Шевляков, Иван Жеваго, Бронислава Захарова, Зоя Толбузина, Светлана Харитонова, Федор Екатериничев, Алексей Миронов, Татьяна Никитина-Описание: Трогательная лирическая киноповесть о судьбе собаки, теряющей любимого хозяина, об отношении людей к «братьям меньшим», которое как рентгеном просвечивает души, выявляя в одних низость и мелочную подлость, а в других — благородство, способность сострадать и любить…-Доп. информация:

    Сценарист: Станислав Ростоцкий
    Оператор: Вячеслав Шумский
    Композитор: Андрей Петров (II)
    Художник: Сергей Серебреников-НАГРАДЫ, НОМИНАЦИИ, ФЕСТИВАЛИ:
    - Главный приз МКФ в Карловых Варах-78;
    - Ленинская премия (1980, С. Ростоцкий, В. Шумский, В. Тихонов);
    - Номинация на премию "Оскар" (1978) в категории "Лучший иностранный фильм";
    - Лучший фильм 1977 года по опросу журнала "Советский экран", прокат (1977, 15 место) — 23.1 млн. зрителей.-Семпл: https://yadi.sk/i/wViDmvBKjGxQW-Качество видео: SATRip-AVC
    Формат видео: MKV
    Видео кодек: H.264
    Аудио кодек: AC3
    Видео: 720x360 (2.00:1), 25 fps, ~1967 kbps
    Аудио: 48 kHz, AC3 Dolby Digital, 2/0 (L,R) ch, ~192 kbps

    MediaInfo

    General
    Unique ID : 214695447764499847395177157601362650767 (0xA184D6D453498A38851DF1462827268F)
    Complete name : C:\Torrent\Белый Бим Черное ухо.1976.SATRip-AVC by Dmitrio7197\1 серия.mkv
    Format : Matroska
    Format version : Version 2
    File size : 1.36 GiB
    Duration : 1h 29mn
    Overall bit rate : 2 161 Kbps
    Encoded date : UTC 2015-09-22 22:10:02
    Writing application : mkvmerge v6.1.0 ('Old Devil') built on Mar 4 2013 09:10:42
    Writing library : libebml v1.3.0 + libmatroska v1.4.0
    Video
    ID : 1
    Format : AVC
    Format/Info : Advanced Video Codec
    Format profile : High@L4.1
    Format settings, CABAC : Yes
    Format settings, ReFrames : 8 frames
    Codec ID : V_MPEG4/ISO/AVC
    Duration : 1h 29mn
    Bit rate : 1 967 Kbps
    Width : 720 pixels
    Height : 360 pixels
    Display aspect ratio : 2.000
    Frame rate mode : Constant
    Frame rate : 25.000 fps
    Color space : YUV
    Chroma subsampling : 4:2:0
    Bit depth : 8 bits
    Scan type : Progressive
    Bits/(Pixel*Frame) : 0.304
    Stream size : 1.21 GiB (89%)
    Writing library : x264 core 130 r2273 b3065e6
    Encoding settings : cabac=1 / ref=8 / deblock=1:0:0 / analyse=0x3:0x113 / me=umh / subme=11 / psy=1 / psy_rd=1.00:0.00 / mixed_ref=1 / me_range=24 / chroma_me=1 / trellis=2 / 8x8dct=1 / cqm=0 / deadzone=21,11 / fast_pskip=1 / chroma_qp_offset=-2 / threads=6 / lookahead_threads=1 / sliced_threads=0 / nr=0 / decimate=0 / interlaced=0 / bluray_compat=0 / constrained_intra=0 / bframes=8 / b_pyramid=2 / b_adapt=1 / b_bias=0 / direct=3 / weightb=1 / open_gop=0 / weightp=2 / keyint=250 / keyint_min=25 / scenecut=40 / intra_refresh=0 / rc_lookahead=40 / rc=2pass / mbtree=1 / bitrate=1967 / ratetol=1.0 / qcomp=0.60 / qpmin=0 / qpmax=69 / qpstep=4 / cplxblur=20.0 / qblur=0.5 / ip_ratio=1.40 / aq=1:1.00
    Default : Yes
    Forced : No
    Audio
    ID : 2
    Format : AC-3
    Format/Info : Audio Coding 3
    Mode extension : CM (complete main)
    Format settings, Endianness : Big
    Codec ID : A_AC3
    Duration : 1h 29mn
    Bit rate mode : Constant
    Bit rate : 192 Kbps
    Channel(s) : 2 channels
    Channel positions : Front: L R
    Sampling rate : 48.0 KHz
    Bit depth : 16 bits
    Compression mode : Lossy
    Stream size : 124 MiB (9%)
    Default : Yes
    Forced : No
    -
    General
    Unique ID : 189347048343477142615955782891653080582 (0x8E72EA3F50892ABBAD80067C4E5CA606)
    Complete name : C:\Torrent\Белый Бим Черное ухо.1976.SATRip-AVC by Dmitrio7197\2 серия.mkv
    Format : Matroska
    Format version : Version 2
    File size : 1.36 GiB
    Duration : 1h 24mn
    Overall bit rate : 2 310 Kbps
    Encoded date : UTC 2015-09-21 03:51:01
    Writing application : mkvmerge v6.1.0 ('Old Devil') built on Mar 4 2013 09:10:42
    Writing library : libebml v1.3.0 + libmatroska v1.4.0
    Video
    ID : 1
    Format : AVC
    Format/Info : Advanced Video Codec
    Format profile : High@L4.1
    Format settings, CABAC : Yes
    Format settings, ReFrames : 8 frames
    Codec ID : V_MPEG4/ISO/AVC
    Duration : 1h 24mn
    Bit rate : 2 116 Kbps
    Width : 720 pixels
    Height : 360 pixels
    Display aspect ratio : 2.000
    Frame rate mode : Constant
    Frame rate : 25.000 fps
    Color space : YUV
    Chroma subsampling : 4:2:0
    Bit depth : 8 bits
    Scan type : Progressive
    Bits/(Pixel*Frame) : 0.327
    Stream size : 1.22 GiB (90%)
    Writing library : x264 core 130 r2273 b3065e6
    Encoding settings : cabac=1 / ref=8 / deblock=1:0:0 / analyse=0x3:0x113 / me=umh / subme=11 / psy=1 / psy_rd=1.00:0.00 / mixed_ref=1 / me_range=24 / chroma_me=1 / trellis=2 / 8x8dct=1 / cqm=0 / deadzone=21,11 / fast_pskip=1 / chroma_qp_offset=-2 / threads=6 / lookahead_threads=1 / sliced_threads=0 / nr=0 / decimate=0 / interlaced=0 / bluray_compat=0 / constrained_intra=0 / bframes=8 / b_pyramid=2 / b_adapt=1 / b_bias=0 / direct=3 / weightb=1 / open_gop=0 / weightp=2 / keyint=250 / keyint_min=25 / scenecut=40 / intra_refresh=0 / rc_lookahead=40 / rc=2pass / mbtree=1 / bitrate=2116 / ratetol=1.0 / qcomp=0.60 / qpmin=0 / qpmax=69 / qpstep=4 / cplxblur=20.0 / qblur=0.5 / ip_ratio=1.40 / aq=1:1.00
    Default : Yes
    Forced : No
    Audio
    ID : 2
    Format : AC-3
    Format/Info : Audio Coding 3
    Mode extension : CM (complete main)
    Format settings, Endianness : Big
    Codec ID : A_AC3
    Duration : 1h 24mn
    Bit rate mode : Constant
    Bit rate : 192 Kbps
    Channel(s) : 2 channels
    Channel positions : Front: L R
    Sampling rate : 48.0 KHz
    Bit depth : 16 bits
    Compression mode : Lossy
    Stream size : 116 MiB (8%)
    Default : Yes
    Forced : No

    Скриншоты

    -

    Сравнение

    DVDRip-AVC - http://perectracker.org/viewtopic.php?t=2461433
    http://screenshotcomparison.com/comparison/143899
    Наполнение кадра немного больше.
    У DVD наблюдается лесенка на плоских предметах (рельсы на 1 и провода на 6 и 9 картинке), а также небольшая замыленность, особенно в движении (5).
    *Черные полоски по бокам в моем рипе плавающие.
    Скачать .torrent

    Скачать торрент-файл бесплатно и на максимальной скорости!

    Как скачивать? · Что такое торрент? · Рейтинг и ограничения

    !ВНИМАНИЕ!
    Сайт не распространяет и не хранит электронные версии произведений, а занимается лишь лишь предоставлением доступа к создаваемому пользователями каталогу ссылок на торрент-файлы, которые содержат только списки хеш-сумм, убедительная просьба с жалобами обращаться напрямую к пользователю. Файлы для обмена на трекере предоставлены пользователями сайта, и администрация не несёт ответственности за их содержание. Просьба не заливать файлы, защищенные авторскими правами, а также файлы нелегального содержания!


    _________________
    [Профиль] [ЛС]
    Показать сообщения:    
    Ответить на тему

    Текущее время: Сегодня, в 06:07

    Часовой пояс: GMT + 2



    Вы не можете начинать темы
    Вы не можете отвечать на сообщения
    Вы не можете редактировать свои сообщения
    Вы не можете удалять свои сообщения
    Вы не можете голосовать в опросах
    Вы не можете прикреплять файлы к сообщениям
    Вы не можете скачивать файлы