Register  ·  Log in
Forgot password?

  • Эффект Лазаря / The Lazarus Effect (Дэвид Гелб / David Gelb) [2015, США, ужасы, триллер, BDRip] Dub (iTunes)

    Reply to topic
    Author Message


    Post 23-Sep-2015 23:56



    Эффект Лазаря / The Lazarus Effect
    Страна: США
    Жанр: ужасы, триллер
    Год выпуска: 2015
    Продолжительность: 01:26:33
    Перевод: Профессиональный (дублированный) iTunes
    Cубтитры: нет
    Оригинальная аудиодорожка: нет
    Режиссер: Дэвид Гелб / David Gelb
    В ролях: Марк Дюпласс, Оливия Уайлд, Дональд Гловер, Эван Питерс, Сара Болгер, Рэй Уайз, Скотт Шелдон, Эмили Келавос, Джеймс Эрл, Эми Акино
    Описание: Команда любознательных студентов узнает секрет воскрешения людей из мертвых. Однако их открытие приводит к страшным последствиям.
    Качество видео: BDRip (исходник The Lazarus Effect 2015 COMPLETE BLURAY-LAZERS)
    Формат видео: AVI
    Видео: Xvid 720x304 23.98fps 2 053 Kbps
    Аудио: Dolby AC3 48000Hz 6ch 384kbps


    Format : AVI
    Format/Info : Audio Video Interleave
    File size : 1.42 GiB
    Duration : 1h 23mn
    Overall bit rate : 2 447 Kbps
    Writing application : VirtualDubMod (build 2550/release)
    ID : 0
    Format : MPEG-4 Visual
    Format profile : AdvancedSimple@L5
    Format settings, BVOP : Yes
    Format settings, QPel : No
    Format settings, GMC : No warppoints
    Format settings, Matrix : Custom
    Codec ID : XVID
    Codec ID/Hint : XviD
    Duration : 1h 23mn
    Bit rate : 2 053 Kbps
    Width : 720 pixels
    Height : 304 pixels
    Display aspect ratio : 2.35:1
    Frame rate : 23.976 fps
    Resolution : 24 bits
    Colorimetry : 4:2:0
    Scan type : Progressive
    Bits/(Pixel*Frame) : 0.391
    Stream size : 1.19 GiB (84%)
    Writing library : XviD 73
    ID : 1
    Format : AC-3
    Format/Info : Audio Coding 3
    Codec ID : 2000
    Duration : 1h 23mn
    Bit rate mode : Constant
    Bit rate : 384 Kbps
    Channel(s) : 6 channels
    Channel positions : Front: L C R, Surround: L R, LFE
    Sampling rate : 48.0 KHz
    Stream size : 228 MiB (16%)
    Alignment : Split accross interleaves
    Interleave, duration : 42 ms (1.00 video frame)
    Interleave, preload duration : 500 ms

    Скриншот c названием фильма


    Download .torrent

    Download free and at maximum speed!

    How to Download? · What is a torrent? · Ratings and Limitations

    The site does not extend and does not store electronic(digital) versions of products, and only gives access to a reference catalogue created by users on torrent-files which contain only lists of the hash-sums, the earnest entreaty, with complaints(abuse) to access directly to the user. Files for an exchange on tracker are given by users of a site, and the administration does not bear the responsibility for their maintenance. The request to not fill in the files protected by copyrights, and also files of the illegal maintenance!

    [Profile] [PM]
    Display posts from previous:    
    Reply to topic

    The time now is: Today 14:21

    All times are GMT + 3 Hours

    You cannot post new topics in this forum
    You cannot reply to topics in this forum
    You cannot edit your posts in this forum
    You cannot delete your posts in this forum
    You cannot vote in polls in this forum
    You cannot attach files in this forum
    You cannot download files in this forum