BitTorrentTracker PerecTracker.org
BitTorrentTracker PerecTracker.org
    
Регистрация  ·  Вход
 
 · 
Забыли пароль?

  • Монтажёр / The Editor (Адам Брукс / Adam Brooks, Мэттью Кеннеди / Matthew Kennedy) [2014, Канада, ужасы, комедия, детектив, DVDRip] VO (Васька Куролесов)

    Ответить на тему
     
    Автор Сообщение

    Light

    Создавать темы 23-Сен-2015 10:20

           

    [Цитировать]

    Монтажёр / The Editor
    Страна: Канада
    Жанр: ужасы, комедия, детектив
    Год выпуска: 2014
    Продолжительность: 01:34:47
    Перевод: Одноголосый закадровый Васька Куролесов по субтитрам МЕГАПЫХАРЬ
    Cубтитры: нет
    Оригинальная аудиодорожка: нет
    Режиссер: Адам Брукс, Мэттью Кеннеди / Adam Brooks, Matthew Kennedy
    В ролях: Пас де ла Уэрта, Удо Кир, Тристан Риск, Лоуренс Р. Харви, Джерри Вассерман, Адам Брукс, Саманта Хилл, Шейла Кэмпбелл, Конор Суини, Мэттью Кеннеди
    Описание: "История о монтажёре, который оказывается втянут в вереницу убийств."

    Семпл
    Качество видео: DVDRip
    Формат видео: AVI
    Видео: 720x288; ~1 996 kbps; 23.976 fps;
    Аудио: AC-3; ~192 kbps, 48000Hz, 2 ch
    Релиз:
    После титров концовка!

    MediaInfo

    General
    Complete name : G:\The Editor_2014_KypoJIecoB .avi
    Format : AVI
    Format/Info : Audio Video Interleave
    File size : 1.45 GiB
    Duration : 1h 34mn
    Overall bit rate : 2 197 Kbps
    Video
    ID : 0
    Format : MPEG-4 Visual
    Format profile : Advanced Simple@L5
    Format settings, BVOP : 2
    Format settings, QPel : No
    Format settings, GMC : No warppoints
    Format settings, Matrix : Default (H.263)
    Codec ID : XVID
    Codec ID/Hint : XviD
    Duration : 1h 34mn
    Bit rate : 1 996 Kbps
    Width : 720 pixels
    Height : 288 pixels
    Display aspect ratio : 2.500
    Frame rate : 23.976 fps
    Color space : YUV
    Chroma subsampling : 4:2:0
    Bit depth : 8 bits
    Scan type : Progressive
    Compression mode : Lossy
    Bits/(Pixel*Frame) : 0.401
    Stream size : 1.32 GiB (91%)
    Writing library : XviD 67
    Audio
    ID : 1
    Format : AC-3
    Format/Info : Audio Coding 3
    Mode extension : CM (complete main)
    Format settings, Endianness : Big
    Codec ID : 2000
    Duration : 1h 34mn
    Bit rate mode : Constant
    Bit rate : 192 Kbps
    Channel(s) : 2 channels
    Channel positions : Front: L R
    Sampling rate : 48.0 KHz
    Compression mode : Lossy
    Stream size : 130 MiB (9%)
    Alignment : Split accross interleaves
    Interleave, duration : 42 ms (1.00 video frame)
    Interleave, preload duration : 500 ms

    Скриншот c названием фильма

    Скриншоты

    Скачать .torrent

    Скачать торрент-файл бесплатно и на максимальной скорости!

    Как скачивать? · Что такое торрент? · Рейтинг и ограничения

    !ВНИМАНИЕ!
    Сайт не распространяет и не хранит электронные версии произведений, а занимается лишь лишь предоставлением доступа к создаваемому пользователями каталогу ссылок на торрент-файлы, которые содержат только списки хеш-сумм, убедительная просьба с жалобами обращаться напрямую к пользователю. Файлы для обмена на трекере предоставлены пользователями сайта, и администрация не несёт ответственности за их содержание. Просьба не заливать файлы, защищенные авторскими правами, а также файлы нелегального содержания!


    _________________
    [Профиль] [ЛС]
    Показать сообщения:    
    Ответить на тему

    Текущее время: Сегодня, в 02:27

    Часовой пояс: GMT + 2



    Вы не можете начинать темы
    Вы не можете отвечать на сообщения
    Вы не можете редактировать свои сообщения
    Вы не можете удалять свои сообщения
    Вы не можете голосовать в опросах
    Вы не можете прикреплять файлы к сообщениям
    Вы не можете скачивать файлы