Register  ·  Log in
Forgot password?

  • Монтажёр / The Editor (Адам Брукс / Adam Brooks, Мэттью Кеннеди / Matthew Kennedy) [2014, Канада, ужасы, комедия, детектив, DVDRip] VO (Васька Куролесов)

    Reply to topic
    Author Message


    Post 23-Sep-2015 11:20



    Монтажёр / The Editor
    Страна: Канада
    Жанр: ужасы, комедия, детектив
    Год выпуска: 2014
    Продолжительность: 01:34:47
    Перевод: Одноголосый закадровый Васька Куролесов по субтитрам МЕГАПЫХАРЬ
    Cубтитры: нет
    Оригинальная аудиодорожка: нет
    Режиссер: Адам Брукс, Мэттью Кеннеди / Adam Brooks, Matthew Kennedy
    В ролях: Пас де ла Уэрта, Удо Кир, Тристан Риск, Лоуренс Р. Харви, Джерри Вассерман, Адам Брукс, Саманта Хилл, Шейла Кэмпбелл, Конор Суини, Мэттью Кеннеди
    Описание: "История о монтажёре, который оказывается втянут в вереницу убийств."

    Качество видео: DVDRip
    Формат видео: AVI
    Видео: 720x288; ~1 996 kbps; 23.976 fps;
    Аудио: AC-3; ~192 kbps, 48000Hz, 2 ch
    После титров концовка!


    Complete name : G:\The Editor_2014_KypoJIecoB .avi
    Format : AVI
    Format/Info : Audio Video Interleave
    File size : 1.45 GiB
    Duration : 1h 34mn
    Overall bit rate : 2 197 Kbps
    ID : 0
    Format : MPEG-4 Visual
    Format profile : Advanced Simple@L5
    Format settings, BVOP : 2
    Format settings, QPel : No
    Format settings, GMC : No warppoints
    Format settings, Matrix : Default (H.263)
    Codec ID : XVID
    Codec ID/Hint : XviD
    Duration : 1h 34mn
    Bit rate : 1 996 Kbps
    Width : 720 pixels
    Height : 288 pixels
    Display aspect ratio : 2.500
    Frame rate : 23.976 fps
    Color space : YUV
    Chroma subsampling : 4:2:0
    Bit depth : 8 bits
    Scan type : Progressive
    Compression mode : Lossy
    Bits/(Pixel*Frame) : 0.401
    Stream size : 1.32 GiB (91%)
    Writing library : XviD 67
    ID : 1
    Format : AC-3
    Format/Info : Audio Coding 3
    Mode extension : CM (complete main)
    Format settings, Endianness : Big
    Codec ID : 2000
    Duration : 1h 34mn
    Bit rate mode : Constant
    Bit rate : 192 Kbps
    Channel(s) : 2 channels
    Channel positions : Front: L R
    Sampling rate : 48.0 KHz
    Compression mode : Lossy
    Stream size : 130 MiB (9%)
    Alignment : Split accross interleaves
    Interleave, duration : 42 ms (1.00 video frame)
    Interleave, preload duration : 500 ms

    Скриншот c названием фильма


    Download .torrent

    Download free and at maximum speed!

    How to Download? · What is a torrent? · Ratings and Limitations

    The site does not extend and does not store electronic(digital) versions of products, and only gives access to a reference catalogue created by users on torrent-files which contain only lists of the hash-sums, the earnest entreaty, with complaints(abuse) to access directly to the user. Files for an exchange on tracker are given by users of a site, and the administration does not bear the responsibility for their maintenance. The request to not fill in the files protected by copyrights, and also files of the illegal maintenance!

    [Profile] [PM]
    Display posts from previous:    
    Reply to topic

    The time now is: Today 17:13

    All times are GMT + 3 Hours

    You cannot post new topics in this forum
    You cannot reply to topics in this forum
    You cannot edit your posts in this forum
    You cannot delete your posts in this forum
    You cannot vote in polls in this forum
    You cannot attach files in this forum
    You cannot download files in this forum