BitTorrentTracker PerecTracker.org
BitTorrentTracker PerecTracker.org
    
Регистрация  ·  Вход
 
 · 
Забыли пароль?

  • Белый Бим Черное ухо (Станислав Ростоцкий) [1977, драма, DVB]

    Ответить на тему
     
    Автор Сообщение

    Light

    Создавать темы 22-Сен-2015 17:32

           

    [Цитировать]

    Белый Бим Черное ухо (2 серии)
    Жанр: драма
    Год выпуска: 1977
    Продолжительность: 01:29:60 + 01:24:09
    Режиссёр: Станислав Ростоцкий
    В ролях: Вячеслав Тихонов, Валентина Владимирова, Михаил Дадыко, Иван Рыжов, Ирина Шевчук, Михаил Зимин, Геннадий Кочкожаров, Римма Мануковская, Мария Скворцова, Анатолий Баранцев, Виталий Леонов, Любовь Соколова, Алексей Чернов, Дмитрий Барков, Раиса Рязанова, Георгий Светлани, Владимир Сергиенко, Василий Воробьёв, Анна Рыбникова, Сережа Шевляков
    Описание: Широкоформатный фильм по одноименной повести Г.Н. Троепольского.
    Трогательная история белого сеттера с чёрным ухом, оказавшегося на улице из-за болезни хозяина.
    Доп. информация: Запись потока *.ts со спутника Экспресс АМ7, 40° в.д., ремукс в *.mkv программой VideoReDo.
    Качество видео: DVB
    Формат видео: MKV
    Видео: MPEG2 Video, 720(768)x576 (4:3), 25,000 кадров/сек, 5323 Кбит/сек
    Аудио: MPEG Audio, 48,0 КГц, 256 Кбит/сек, 2 канала

    MediaInfo

    Общее
    Уникальный идентификатор : 121707599945102372741578680737997215450 (0x5B9007F770849E3BB9ED8E6805A356DA)
    Полное имя : D:\MPG\БЕЛЫЙ БИМ ЧЕРНОЕ УХО\БЕЛЫЙ БИМ ЧЕРНОЕ УХО 1 (Kultura 40).mkv
    Формат : Matroska
    Версия формата : Version 2
    Размер файла : 3,53 Гбайт
    Продолжительность : 1 ч. 30 м.
    Режим общего битрейта : Переменный
    Общий поток : 5620 Кбит/сек
    Программа кодирования : Lavf52.64.2
    Библиотека кодирования : Lavf52.64.2
    Видео
    Идентификатор : 1
    Формат : MPEG Video
    Версия формата : Version 2
    Профиль формата : Main@Main
    Параметр BVOP формата : Нет
    Параметр матрицы формата : Выборочная
    Идентификатор кодека : V_MPEG2
    Идентификатор кодека/Информация : MPEG 1 or 2 Video
    Продолжительность : 1 ч. 30 м.
    Вид битрейта : Переменный
    Битрейт : 5252 Кбит/сек
    Максимальный битрейт : 15,0 Мбит/сек
    Ширина : 720 пикселей
    Высота : 576 пикселей
    Соотношение сторон : 4:3
    Соотношение сторон в оригинале : 4:3
    Режим частоты кадров : Постоянный
    Частота кадров : 25,000 кадров/сек
    Стандарт вещания : PAL
    Цветовое пространство : YUV
    Субдискретизация насыщенности : 4:2:0
    Битовая глубина : 8 бит
    Тип развёртки : Чересстрочная
    Порядок развёртки : Верхнее поле первое
    Метод сжатия : С потерями
    Бит/(Пиксели*Кадры) : 0.507
    Временной код первого кадра : 00:00:00:00
    Оригинал временного кода : Group of pictures header
    Размер потока : 3,30 Гбайт (93%)
    Default : Да
    Forced : Нет
    Аудио
    Идентификатор : 2
    Формат : MPEG Audio
    Версия формата : Version 1
    Профиль формата : Layer 2
    Идентификатор кодека : A_MPEG/L2
    Идентификатор кодека/Подсказка : MP2
    Продолжительность : 1 ч. 30 м.
    Вид битрейта : Постоянный
    Битрейт : 256 Кбит/сек
    Каналы : 2 канала
    Частота : 48,0 КГц
    Метод сжатия : С потерями
    Задержка видео : -1 м. 5 с.
    Размер потока : 165 Мбайт (5%)
    Язык : English
    Default : Да
    Forced : Нет
    Общее
    Уникальный идентификатор : 50738600875741656918769608681785294132 (0x262BE629DD1F91F822C3434375767D34)
    Полное имя : D:\MPG\БЕЛЫЙ БИМ ЧЕРНОЕ УХО\БЕЛЫЙ БИМ ЧЕРНОЕ УХО 2 (Kultura 40).mkv
    Формат : Matroska
    Версия формата : Version 2
    Размер файла : 3,30 Гбайт
    Продолжительность : 1 ч. 24 м.
    Режим общего битрейта : Переменный
    Общий поток : 5620 Кбит/сек
    Программа кодирования : Lavf52.64.2
    Библиотека кодирования : Lavf52.64.2
    Видео
    Идентификатор : 1
    Формат : MPEG Video
    Версия формата : Version 2
    Профиль формата : Main@Main
    Параметр BVOP формата : Нет
    Параметр матрицы формата : Выборочная
    Идентификатор кодека : V_MPEG2
    Идентификатор кодека/Информация : MPEG 1 or 2 Video
    Продолжительность : 1 ч. 24 м.
    Вид битрейта : Переменный
    Битрейт : 5252 Кбит/сек
    Максимальный битрейт : 15,0 Мбит/сек
    Ширина : 720 пикселей
    Высота : 576 пикселей
    Соотношение сторон : 4:3
    Соотношение сторон в оригинале : 4:3
    Режим частоты кадров : Постоянный
    Частота кадров : 25,000 кадров/сек
    Стандарт вещания : PAL
    Цветовое пространство : YUV
    Субдискретизация насыщенности : 4:2:0
    Битовая глубина : 8 бит
    Тип развёртки : Чересстрочная
    Порядок развёртки : Верхнее поле первое
    Метод сжатия : С потерями
    Бит/(Пиксели*Кадры) : 0.507
    Временной код первого кадра : 00:00:00:00
    Оригинал временного кода : Group of pictures header
    Размер потока : 3,09 Гбайт (93%)
    Default : Да
    Forced : Нет
    Аудио
    Идентификатор : 2
    Формат : MPEG Audio
    Версия формата : Version 1
    Профиль формата : Layer 2
    Идентификатор кодека : A_MPEG/L2
    Идентификатор кодека/Подсказка : MP2
    Продолжительность : 1 ч. 24 м.
    Вид битрейта : Постоянный
    Битрейт : 256 Кбит/сек
    Каналы : 2 канала
    Частота : 48,0 КГц
    Метод сжатия : С потерями
    Размер потока : 154 Мбайт (5%)
    Язык : English
    Default : Да
    Forced : Нет

    Скриншоты

    Скачать .torrent

    Скачать торрент-файл бесплатно и на максимальной скорости!

    Как скачивать? · Что такое торрент? · Рейтинг и ограничения

    !ВНИМАНИЕ!
    Сайт не распространяет и не хранит электронные версии произведений, а занимается лишь лишь предоставлением доступа к создаваемому пользователями каталогу ссылок на торрент-файлы, которые содержат только списки хеш-сумм, убедительная просьба с жалобами обращаться напрямую к пользователю. Файлы для обмена на трекере предоставлены пользователями сайта, и администрация не несёт ответственности за их содержание. Просьба не заливать файлы, защищенные авторскими правами, а также файлы нелегального содержания!


    _________________
    [Профиль] [ЛС]
    Показать сообщения:    
    Ответить на тему

    Текущее время: Сегодня, в 08:29

    Часовой пояс: GMT + 2



    Вы не можете начинать темы
    Вы не можете отвечать на сообщения
    Вы не можете редактировать свои сообщения
    Вы не можете удалять свои сообщения
    Вы не можете голосовать в опросах
    Вы не можете прикреплять файлы к сообщениям
    Вы не можете скачивать файлы