BitTorrentTracker PerecTracker.org
BitTorrentTracker PerecTracker.org
    
Регистрация  ·  Вход
 
 · 
Забыли пароль?

  • Бульвар / Boulevard (Дито Монтиель / Dito Montiel) [2014, США, драма, криминал, BDRip] Sub Rus + Original Eng

    Ответить на тему
     
    Автор Сообщение

    Light

    Создавать темы 22-Сен-2015 13:20

           

    [Цитировать]

    Бульвар / Boulevard
    Страна: США
    Жанр: драма, криминал
    Год выпуска: 2014
    Продолжительность: 01:28:08
    Перевод: Субтитры - БлогБастер
    Cубтитры: русские
    Оригинальная аудиодорожка: английский

    Режиссер: Дито Монтиель / Dito Montiel
    В ролях: Робин Уильямс, Боб Оденкёрк, Кэти Бейкер, Роберто Агуайр, Джиллз Мэттхи, Элеанор Хендрикс, Дж. Карен Томас, Лэндон Маршалл, Кертис Гордон, Брэндон Хирш
    Описание: Нолан Мэк 60-летний банковский клерк. Старательно поддерживая репутацию добропорядочного семьянина, он тщательно скрывает, и даже пытается подавить в себе тайную страсть к мужчинам. Случайное знакомство с парнем-проституткой ставит под угрозу и семью, и карьеру Нолана
    Качество видео: BDRip
    Формат видео: AVI
    Видео: 720x304 (2.37:1), 23.976 fps, XviD build 73 ~1907 kbps avg, 0.36 bit/pixel
    Аудио: 48 kHz, AC3 Dolby Digital, 3/2 (L,C,R,l,r) + LFE ch, ~448 kbps

    Фрагмент субтитров

    566
    00:38:55,760 --> 00:38:58,525
    Это мой первый фингал
    за 60 лет.
    567
    00:39:07,159 --> 00:39:10,960
    У тебя есть какой-нибудь
    антисептик или перекись?
    568
    00:39:14,000 --> 00:39:15,489
    У тебя...
    569
    00:39:35,000 --> 00:39:38,322
    - Вот так...
    - Ох, я уснул.
    570
    00:39:39,920 --> 00:39:41,523
    Кровь уже перестала.
    571
    00:39:45,679 --> 00:39:46,840
    Я пойду, ладно?
    572
    00:39:48,840 --> 00:39:50,251
    Если ты не против.
    573
    00:40:26,719 --> 00:40:27,800
    Бог ты мой...
    574
    00:41:13,679 --> 00:41:16,286
    - Привет.
    - Привет.
    575
    00:41:16,440 --> 00:41:18,282
    Боже, Нолан, что случилось?
    576
    00:41:18,440 --> 00:41:19,771
    Сильно заметно?
    577
    00:41:19,920 --> 00:41:21,495
    Что за чертовщина приключилось?
    578
    00:41:21,599 --> 00:41:23,250
    Да полез в офисный шкаф,
    ну, знаешь такой,

    MediaInfo

    Общее
    Полное имя : H:\Boulevard.2014.bdrip_[1.46]_[teko]\Boulevard.2014.bdrip_[1.46].avi
    Формат : AVI
    Формат/Информация : Audio Video Interleave
    Размер файла : 1,46 Гбайт
    Продолжительность : 1 ч. 28 м.
    Общий поток : 2365 Кбит/сек
    Программа кодирования : VirtualDubMod 1.5.10.3 | www.virtualdub-fr.org || (build 2550/release)
    Библиотека кодирования : VirtualDubMod build 2550/release
    Видео
    Идентификатор : 0
    Формат : MPEG-4 Visual
    Профиль формата : Advanced Simple@L5
    Параметр BVOP формата : 1
    Параметр QPel формата : Нет
    Параметр GMC формата : Без точки перехода
    Параметр матрицы формата : Выборочная
    Идентификатор кодека : XVID
    Идентификатор кодека/Подсказка : XviD
    Продолжительность : 1 ч. 28 м.
    Битрейт : 1908 Кбит/сек
    Ширина : 720 пикселей
    Высота : 304 пикселя
    Соотношение сторон : 2,35:1
    Частота кадров : 23,976 кадра/сек
    Цветовое пространство : YUV
    Субдискретизация насыщенности : 4:2:0
    Битовая глубина : 8 бит
    Тип развёртки : Прогрессивная
    Метод сжатия : С потерями
    Бит/(Пиксели*Кадры) : 0.364
    Размер потока : 1,17 Гбайт (81%)
    Библиотека кодирования : XviD 73
    Аудио
    Идентификатор : 1
    Формат : AC-3
    Формат/Информация : Audio Coding 3
    Расширение режима : CM (complete main)
    Параметр Endianness формата : Big
    Идентификатор кодека : 2000
    Продолжительность : 1 ч. 28 м.
    Вид битрейта : Постоянный
    Битрейт : 448 Кбит/сек
    Каналы : 6 каналов
    Расположение каналов : Front: L C R, Side: L R, LFE
    Частота : 48,0 КГц
    Битовая глубина : 16 бит
    Метод сжатия : С потерями
    Размер потока : 282 Мбайт (19%)
    Выравнивание : Разделение по промежуткам
    Продолжительность промежутка : 42 мс. (1,00 видеокадр)
    Время предзагрузки промежутка : 500 мс.

    Скриншоты

    Релиз группы:

    -
    -
    Скачать .torrent

    Скачать торрент-файл бесплатно и на максимальной скорости!

    Как скачивать? · Что такое торрент? · Рейтинг и ограничения

    !ВНИМАНИЕ!
    Сайт не распространяет и не хранит электронные версии произведений, а занимается лишь лишь предоставлением доступа к создаваемому пользователями каталогу ссылок на торрент-файлы, которые содержат только списки хеш-сумм, убедительная просьба с жалобами обращаться напрямую к пользователю. Файлы для обмена на трекере предоставлены пользователями сайта, и администрация не несёт ответственности за их содержание. Просьба не заливать файлы, защищенные авторскими правами, а также файлы нелегального содержания!


    _________________
    [Профиль] [ЛС]
    Показать сообщения:    
    Ответить на тему

    Текущее время: Сегодня, в 20:35

    Часовой пояс: GMT + 2



    Вы не можете начинать темы
    Вы не можете отвечать на сообщения
    Вы не можете редактировать свои сообщения
    Вы не можете удалять свои сообщения
    Вы не можете голосовать в опросах
    Вы не можете прикреплять файлы к сообщениям
    Вы не можете скачивать файлы