BitTorrentTracker PerecTracker.org
BitTorrentTracker PerecTracker.org
    
Регистрация  ·  Вход
 
 · 
Забыли пароль?

  • Сказка о Гонзике и Марженке / Pohadka o Honzikovi a Marence / The Tale of John and Mary (Карел Земан / Karel Zeman) [1980, мультфильм, фэнтези, мелодрама, приключения, DVDRip] VO

    Ответить на тему
     
    Автор Сообщение

    rechyn

    Создавать темы 22-Сен-2015 13:20

           

    [Цитировать]

    Сказка о Гонзике и Марженке / Pohadka o Honzikovi a Marence / The Tale of John and Mary
    Страна: Чехословакия
    Жанр: мультфильм, фэнтези, мелодрама, приключения, семейный
    Продолжительность: 01:05:02
    Год выпуска: 1980
    Перевод: Одноголосый закадровый
    Русские субтитры: нет

    Режиссёр: Карел Земан / Karel Zeman
    Роли озвучивали: Отакар Броусек, Антонин Прхазка, Надя Конвалинкова, Гелена Вондрачкова, Франтишек Филиповски, Ярослав Моучка, Крел Семерад, Зденек Вашек, Милош Восманский, Яна Томечкова
    Описание: Мультипликационная сказка об отважном Гонзике и прекрасной Марженке повествует о чистой любви бедного юноши и хрупкой русалки. Гонзик отправляется в путь в сопровождении трех гномов, которые его в пути охраняют, советуют ему в тяжелых жизненных ситуациях и проверяют его характер.
    Сказка возникла в 1980 году и это последний полнометражный фильм мастера чешского трюкового фильма, художника и режиссера Карла Земана. Земан прославился благодаря таким трюковым фильмам как «Путешествие в доисторические времена» (1955), «Гибельное изобретение» (1958) или «Барон Прашил» (1961). В сказке о Гонзике и Марженке Земан вернулся к технологии плоскостной анимации, которую применял в начале своей карьеры. Однако, в этой сказке он данную технологию искусно скомбинировал с объёмными моделями и фотографиями. Результатом стал захватывающий пересказ волшебной чешской сказки. Первоначальный дизайн фильма напоминает средневековые иллюминированные рукописи. Фильм получил много призов во всем мире, в том числе и главный приз за лучший анимационный фильм на Гиффонском международном фестивале.

    Качество: DVDRip
    Формат: AVI
    Видео: 656x480 (1.37:1), 25 fps, XviD build 73 ~1391 kbps avg, 0.18 bit/pixel
    Аудио: 48 kHz, AC3 Dolby Digital, 2/0 (L,R) ch, ~192 kbps
    Субтитры: отсутствуют

    Подробные технические данные

    ОбщееПолное имя : H:\Pohadka.o.Honzikovi.a.Marence.1980.dvdrip_[745]_[teko].aviФормат : AVIФормат/Информация : Audio Video InterleaveРазмер файла : 741 МбайтПродолжительность : 1 ч. 5 м.Общий поток : 1594 Кбит/секПрограмма кодирования : VirtualDubMod 1.5.10.3 | www.virtualdub-fr.org || (build 2550/release)Библиотека кодирования : VirtualDubMod build 2550/release
    ВидеоИдентификатор : 0Формат : MPEG-4 VisualПрофиль формата : Advanced Simple@L5Параметр BVOP формата : 2Параметр QPel формата : НетПараметр GMC формата : Без точки переходаПараметр матрицы формата : ВыборочнаяИдентификатор кодека : XVIDИдентификатор кодека/Подсказка : XviDПродолжительность : 1 ч. 5 м.Битрейт : 1392 Кбит/секШирина : 656 пикселейВысота : 480 пикселейСоотношение сторон : 4:3Частота кадров : 25,000 кадров/секЦветовое пространство : YUVСубдискретизация насыщенности : 4:2:0Битовая глубина : 8 битТип развёртки : ПрогрессивнаяМетод сжатия : С потерямиБит/(Пиксели*Кадры) : 0.177Размер потока : 648 Мбайт (87%)Библиотека кодирования : XviD 73
    АудиоИдентификатор : 1Формат : AC-3Формат/Информация : Audio Coding 3Расширение режима : CM (complete main)Параметр Endianness формата : BigИдентификатор кодека : 2000Продолжительность : 1 ч. 5 м.Вид битрейта : ПостоянныйБитрейт : 192 Кбит/секКаналы : 2 каналаРасположение каналов : Front: L RЧастота : 48,0 КГцБитовая глубина : 16 битМетод сжатия : С потерямиРазмер потока : 89,3 Мбайт (12%)Выравнивание : Разделение по промежуткамПродолжительность промежутка : 40 мс. (1,00 видеокадр)Время предзагрузки промежутка : 500 мс.

    Скриншоты

    Релиз группы:

    -
    -

    _________________
    [Профиль] [ЛС]
    Показать сообщения:    
    Ответить на тему

    Текущее время: Сегодня, в 04:15

    Часовой пояс: GMT + 2



    Вы не можете начинать темы
    Вы не можете отвечать на сообщения
    Вы не можете редактировать свои сообщения
    Вы не можете удалять свои сообщения
    Вы не можете голосовать в опросах
    Вы не можете прикреплять файлы к сообщениям
    Вы не можете скачивать файлы