BitTorrentTracker PerecTracker.org
BitTorrentTracker PerecTracker.org
    
Регистрация  ·  Вход
 
 · 
Забыли пароль?

  • Президент Линкольн: Охотник на вампиров / Abraham Lincoln: Vampire Hunter (Тимур Бекмамбетов / Timur Bekmambetov) [2012, США, фантастика, приключения, ужасы, BDRip] Dub + Sub Rus, Eng + Original Eng

    Ответить на тему
     
    Автор Сообщение

    Light

    Создавать темы 22-Сен-2015 13:20

           

    [Цитировать]

    Президент Линкольн: Охотник на вампиров / Abraham Lincoln: Vampire Hunter-Страна: США
    Жанр: фантастика, приключения, ужасы
    Год выпуска: 2012
    Продолжительность: 01:45:00-Перевод: Профессиональный (дублированный)
    Cубтитры: русские, английские (eng.srt, rus forced.srt, rus.srt) отдельно вложенные
    Оригинальная аудиодорожка: английский-Режиссер: Тимур Бекмамбетов / Timur Bekmambetov-В ролях: Бенджамин Уокер, Доминик Купер, Энтони Маки, Мэри Элизабет Уинстэд, Руфус Сьюэлл, Мартон Чокаш, Джимми Симпсон, Джозеф Моул, Робин МакЛиви, Эрин Уоссон и др.-Описание: Мир полон тайн и загадок. Вот и у Авраама Линкольна была своя тайна: днём он был президентом всея страны америки, любящим мужем и заботливым отцом. А ночью он превращался в безжалостного и беспощадного убийцу вампиров. Армия кровопивц, которая заполонила всю америку, всё растёт и растёт с каждым днём! Вот и пришлось Аврааму Линкольну по совместительству, на общественных началах, быть ещё и охотником на вампиров. А кто ещё внатуре, если не он, сможет спасти свою страну от полчищ вампиров, и спасти свою семью и свой народ от безжалостных кровопивцев? Только он - Авраам Линкольн!!!-Качество видео: BDRip [ABRAHAM_LINCOLN_2D_BLUEBIRD / Vaippp+HQ-ViDEO]
    Формат видео: AVI-Vidео: XviD MPEG-4, 720x304, 2.35:1, 23.976 fps, ~2065 kbps avg, 0.394 bit/pixel
    Аudiо #1: Russian AC-3 Dolby Digital, CBR 448 kbps 6 ch, Front: L C R, Side: L R, LFE, 48.0 KHz
    Аudiо #2: English AC-3 Dolby Digital, CBR 448 kbps 6 ch, Front: L C R, Side: L R, LFE, 48.0 KHz-

    MediaInfo

    ОбщееПолное имя : P:\Abraham_Lincoln_Vampire_Hunter_2012_BDRip_[perectracker.org]\Abraham_Lincoln_Vampire_Hunter_2012_BDRip.aviФормат : AVIФормат/Информация : Audio Video InterleaveПрофиль формата : OpenDMLРазмер файла : 2,19 ГбайтПродолжительность : 1 ч. 45 м.Общий поток : 2979 Кбит/секНазвание фильма : Abraham Lincoln: Vampire Hunter (2012)Режиссёр : VaipppЖанр : HorrorПрограмма кодирования : VirtualDubModRus 1.5.10.2 (build 2542/release)Формат оригинала/Имя : MovieПравообладатель : HQ-ViDEOПримечание : BDRip
    ВидеоИдентификатор : 0Формат : MPEG-4 VisualПрофиль формата : Advanced Simple@L5Параметр BVOP формата : 1Параметр QPel формата : НетПараметр GMC формата : Без точки переходаПараметр матрицы формата : ВыборочнаяИдентификатор кодека : XVIDИдентификатор кодека/Подсказка : XviDПродолжительность : 1 ч. 45 м.Битрейт : 2065 Кбит/секШирина : 720 пикселейВысота : 304 пикселяСоотношение сторон : 2,35:1Частота кадров : 23,976 кадра/секЦветовое пространство : YUVСубдискретизация насыщенности : 4:2:0Битовая глубина : 8 битТип развёртки : ПрогрессивнаяМетод сжатия : С потерямиБит/(Пиксели*Кадры) : 0.394Размер потока : 1,51 Гбайт (69%)Библиотека кодирования : XviD 73
    Аудио #1Идентификатор : 1Формат : AC-3Формат/Информация : Audio Coding 3Расширение режима : CM (complete main)Параметр Endianness формата : BigИдентификатор кодека : 2000Продолжительность : 1 ч. 45 м.Вид битрейта : ПостоянныйБитрейт : 448 Кбит/секКаналы : 6 каналовРасположение каналов : Front: L C R, Side: L R, LFEЧастота : 48,0 КГцБитовая глубина : 16 битМетод сжатия : С потерямиРазмер потока : 336 Мбайт (15%)Выравнивание : Разделение по промежуткамПродолжительность промежутка : 42 мс. (1,00 видеокадр)Время предзагрузки промежутка : 500 мс.
    Аудио #2Идентификатор : 2Формат : AC-3Формат/Информация : Audio Coding 3Расширение режима : CM (complete main)Параметр Endianness формата : BigИдентификатор кодека : 2000Продолжительность : 1 ч. 45 м.Вид битрейта : ПостоянныйБитрейт : 448 Кбит/секКаналы : 6 каналовРасположение каналов : Front: L C R, Side: L R, LFEЧастота : 48,0 КГцБитовая глубина : 16 битМетод сжатия : С потерямиРазмер потока : 336 Мбайт (15%)Выравнивание : Разделение по промежуткамПродолжительность промежутка : 42 мс. (1,00 видеокадр)Время предзагрузки промежутка : 500 мс.
    ОбщееПолное имя : P:\Abraham_Lincoln_Vampire_Hunter_2012_BDRip_[perectracker.org]\Abraham_Lincoln_Vampire_Hunter_2012_BDRip.eng.srtФормат : SubRipРазмер файла : 86,8 Кбайт
    ТекстФормат : SubRipМетод сжатия : Без потерь
    ОбщееПолное имя : P:\Abraham_Lincoln_Vampire_Hunter_2012_BDRip_[perectracker.org]\Abraham_Lincoln_Vampire_Hunter_2012_BDRip.rus forced.srtФормат : SubRipРазмер файла : 622 байт
    ТекстФормат : SubRipМетод сжатия : Без потерь
    ОбщееПолное имя : P:\Abraham_Lincoln_Vampire_Hunter_2012_BDRip_[perectracker.org]\Abraham_Lincoln_Vampire_Hunter_2012_BDRip.rus.srtФормат : SubRipРазмер файла : 64,2 Кбайт
    ТекстФормат : SubRipМетод сжатия : Без потерь

    Скриншот c названием фильма

    Скриншоты

    Время раздачи - по возможности.
    Скачать .torrent

    Скачать торрент-файл бесплатно и на максимальной скорости!

    Как скачивать? · Что такое торрент? · Рейтинг и ограничения

    !ВНИМАНИЕ!
    Сайт не распространяет и не хранит электронные версии произведений, а занимается лишь лишь предоставлением доступа к создаваемому пользователями каталогу ссылок на торрент-файлы, которые содержат только списки хеш-сумм, убедительная просьба с жалобами обращаться напрямую к пользователю. Файлы для обмена на трекере предоставлены пользователями сайта, и администрация не несёт ответственности за их содержание. Просьба не заливать файлы, защищенные авторскими правами, а также файлы нелегального содержания!


    _________________
    [Профиль] [ЛС]
    Показать сообщения:    
    Ответить на тему

    Текущее время: Сегодня, в 02:38

    Часовой пояс: GMT + 2



    Вы не можете начинать темы
    Вы не можете отвечать на сообщения
    Вы не можете редактировать свои сообщения
    Вы не можете удалять свои сообщения
    Вы не можете голосовать в опросах
    Вы не можете прикреплять файлы к сообщениям
    Вы не можете скачивать файлы