BitTorrentTracker PerecTracker.org
BitTorrentTracker PerecTracker.org
    
Регистрация  ·  Вход
 
 · 
Забыли пароль?

  • Президент Линкольн: Охотник на вампиров / Abraham Lincoln: Vampire Hunter (Тимур Бекмамбетов / Timur Bekmambetov) [2012, США, фантастика, приключения, ужасы, HDRip] Dub

    Ответить на тему
     
    Автор Сообщение

    Light

    Создавать темы 20-Сен-2015 22:00

           

    [Цитировать]

    Президент Линкольн: Охотник на вампиров / Abraham Lincoln: Vampire Hunter-Страна: США
    Жанр: фантастика, приключения, ужасы
    Год выпуска: 2012
    Продолжительность: 01:45:00-Перевод: Профессиональный (дублированный)
    Cубтитры: отсутствуют
    Оригинальная аудиодорожка: нет-Режиссер: Тимур Бекмамбетов / Timur Bekmambetov-В ролях: Бенджамин Уокер, Доминик Купер, Энтони Маки, Мэри Элизабет Уинстэд, Руфус Сьюэлл, Мартон Чокаш, Джимми Симпсон, Джозеф Моул, Робин МакЛиви, Эрин Уоссон и др.-Описание: Мир полон тайн и загадок. Вот и у Авраама Линкольна была своя тайна: днём он был президентом всея страны америки, любящим мужем и заботливым отцом. А ночью он превращался в безжалостного и беспощадного убийцу вампиров. Армия кровопивц, которая заполонила всю америку, всё растёт и растёт с каждым днём! Вот и пришлось Аврааму Линкольну по совместительству, на общественных началах, быть ещё и охотником на вампиров. А кто ещё внатуре, если не он, сможет спасти свою страну от полчищ вампиров, и спасти свою семью и свой народ от безжалостных кровопивцев? Только он - Авраам Линкольн!!!-Качество видео: HDRip
    Формат видео: AVI-Vidео: XviD MPEG-4, 640x272, 2.35:1, 23.976 fps, ~862 kbps avg, 0.206 bit/pixel
    Аudiо: MP-3 Stereo, CBR 128 kbps 2 ch, 48.0 KHz-

    MediaInfo

    ОбщееПолное имя : V:\Abraham_Lincoln_Vampire_Hunter_2012_HDRip_[perectracker.org].aviФормат : AVIФормат/Информация : Audio Video InterleaveРазмер файла : 750 МбайтПродолжительность : 1 ч. 45 м.Общий поток : 999 Кбит/секПрограмма кодирования : VirtualDubMod 1.5.10.2 (build 2540/release)Библиотека кодирования : VirtualDubMod build 2540/release
    ВидеоИдентификатор : 0Формат : MPEG-4 VisualПрофиль формата : Advanced Simple@L5Параметр BVOP формата : 1Параметр QPel формата : НетПараметр GMC формата : Без точки переходаПараметр матрицы формата : ВыборочнаяИдентификатор кодека : XVIDИдентификатор кодека/Подсказка : XviDПродолжительность : 1 ч. 45 м.Битрейт : 862 Кбит/секШирина : 640 пикселейВысота : 272 пикселяСоотношение сторон : 2,35:1Частота кадров : 23,976 кадра/секЦветовое пространство : YUVСубдискретизация насыщенности : 4:2:0Битовая глубина : 8 битТип развёртки : ПрогрессивнаяМетод сжатия : С потерямиБит/(Пиксели*Кадры) : 0.206Размер потока : 647 Мбайт (86%)Библиотека кодирования : XviD 1.2.1 (UTC 2008-12-04)
    АудиоИдентификатор : 1Формат : MPEG AudioВерсия формата : Version 1Профиль формата : Layer 3Идентификатор кодека : 55Идентификатор кодека/Подсказка : MP3Продолжительность : 1 ч. 45 м.Вид битрейта : ПостоянныйБитрейт : 128 Кбит/секКаналы : 2 каналаЧастота : 48,0 КГцМетод сжатия : С потерямиРазмер потока : 96,1 Мбайт (13%)Выравнивание : Соединение по промежуткамПродолжительность промежутка : 42 мс. (1,00 видеокадр)Время предзагрузки промежутка : 504 мс.Библиотека кодирования : LAME3.97Настройки программы : -m s -V 4 -q 2 -lowpass 17 -b 128

    Скриншот c названием фильма

    Скриншоты

    Время раздачи - по возможности.
    Скачать .torrent

    Скачать торрент-файл бесплатно и на максимальной скорости!

    Как скачивать? · Что такое торрент? · Рейтинг и ограничения

    !ВНИМАНИЕ!
    Сайт не распространяет и не хранит электронные версии произведений, а занимается лишь лишь предоставлением доступа к создаваемому пользователями каталогу ссылок на торрент-файлы, которые содержат только списки хеш-сумм, убедительная просьба с жалобами обращаться напрямую к пользователю. Файлы для обмена на трекере предоставлены пользователями сайта, и администрация не несёт ответственности за их содержание. Просьба не заливать файлы, защищенные авторскими правами, а также файлы нелегального содержания!


    _________________
    [Профиль] [ЛС]
    Показать сообщения:    
    Ответить на тему

    Текущее время: Сегодня, в 22:34

    Часовой пояс: GMT + 2



    Вы не можете начинать темы
    Вы не можете отвечать на сообщения
    Вы не можете редактировать свои сообщения
    Вы не можете удалять свои сообщения
    Вы не можете голосовать в опросах
    Вы не можете прикреплять файлы к сообщениям
    Вы не можете скачивать файлы