BitTorrentTracker PerecTracker.org
BitTorrentTracker PerecTracker.org
    
Регистрация  ·  Вход
 
 · 
Забыли пароль?

  • [iPad] Астрал 3 / Insidious: Chapter 3 (Ли Уоннелл / Leigh Whannell ) [2015, США, Ужасы, триллер, драма, WEB-DLRip, SD (576p)] DUB + Original + sub (rus, eng, ukr)

    Ответить на тему
     
    Автор Сообщение

    rechyn

    Создавать темы 20-Сен-2015 01:00

           

    [Цитировать]

    Астрал 3 / Insidious: Chapter 3
    «У каждой истории есть начало...»
    5.761 / 10 6.30 / 10
    -Год выпуска: 2015
    Страна: США
    Жанр: Ужасы, триллер, драма
    Продолжительность: 01:37:20
    Перевод: Дублированный (iTunes)
    Оригинальная аудиодорожка: Есть
    Cубтитры: Русские форсированные, Русские, Английские, Украинские
    Режиссёр: Ли Уоннелл
    Сценарий: Ли Уоннелл
    Продюсер: Джейсон Блум, Орен Пели, Джеймс Ван
    Оператор: Брайан Пирсон
    Композитор: Джозеф Бишара
    Художник: Дженнифер Спенс, Джейсон Гарнер, Ариэла Уолд-Кохэйн
    Монтаж: Тимоти Элверсон
    В ролях: Стефани Скотт, Лин Шэй, Дермот Малруни, Энгус Сэмпсон, Ли Уоннелл, Тейт Берни, Майкл Рид МакКей, Стив Култер, Хейли Кийоко, Корбетт Так
    Бюджет: $10 000 000
    Сборы в США: $52 218 558
    Сборы в мире: + $57 300 000 = $109 518 558
    Сборы в России: $5 957 274
    Мировая премьера: 28 мая 2015
    Премьера (РФ): 4 июня 2015, «WDSSPR»
    Релиз на DVD: 8 октября 2015, «CP Дистрибуция»
    Релиз на Blu-Ray: 8 октября 2015, «CP Дистрибуция»
    Описание: История о том, как одаренный экстрасенс Элис Рейнер неохотно соглашается использовать свои способности для установления связи с мертвыми, чтобы помочь девочке-подростку, которая стала мишенью для опасной сверхъестественной сущности.-Качество исходника: WEB-DL 1080p
    Качество: WEB-DLRip
    Тип: SD (576p)
    Контейнер: M4V
    Видео: H.264, 1024x432, 2.40:1, 2 200 Kbps, 23.976 fps
    Аудио 1: Русский/Дублированный (iTunes), AAC / 2.0 / 156 Kbps / 48.0 KHz
    Аудио 2: Английский/Оригинальная дорожка , AAC / 2.0 / 150 Kbps / 48.0 KHz
    Субтитры 1: Русские форсированные
    Субтитры 2: Русские полные
    Субтитры 3: Английские полные
    Субтитры 4: Украинские полные
    -

    iTunes Meta Tags

    Sort Name: Insidious: Chapter 3
    XID: Apple:vendor_id:2015-798277
    contentID: 997549511
    Copyright: © 2015 Sony Pictures Worldwide Acquisitions Inc. All Rights Reserved.
    Screenwriters: Ли Уоннелл
    Producers: Джейсон Блум, Орен Пели, Джеймс Ван
    Director: Ли Уоннелл
    Cast: Стефани Скотт, Дермот Малруни, Энгус Сэмпсон, Ли Уоннелл, Лин Шэй, Тейт Берни, Майкл Рид МакКей, Стив Култер, Хейли Кийоко, Корбетт Так, Евгения Ваган, Денис Беспалый, Борис Шувалов, Иван Калинин, Любовь Германова
    Studio: Automatik Entertainment
    Rating: 10
    Long Description: История о том, как одаренный экстрасенс Элис Рейнер неохотно соглашается использовать свои способности для установления связи с мертвыми, чтобы помочь девочке-подростку, которая стала мишенью для опасной сверхъестественной сущности.
    Description: История о том, как одаренный экстрасенс Элис Рейнер неохотно соглашается использовать свои способности для установления связи с мертвыми, чтобы помочь девочке-подростку, которая стала мишенью для опасной сверхъестественной сущности.
    Release Date: 2015-05-28T08:00:00Z
    Genre: Horror
    Artist: Leigh Whannell
    Name: Insidious: Chapter 3

    MediaInfo

    General
    Complete name                            : /Users/imac/HandBrake/Insidious.Chapter.3.(SD).(pk).m4v
    Format                                   : MPEG-4
    Codec ID                                 : M4V
    File size                                : 1.71 GiB
    Duration                                 : 1h 37mn
    Overall bit rate mode                    : Variable
    Overall bit rate                         : 2 514 Kbps
    Movie name                               : Insidious: Chapter 3
    Performer                                : Leigh Whannell
    Genre                                    : Horror
    Recorded date                            : UTC 2015-05-28 08:00:00
    Encoded date                             : UTC 2015-09-19 21:50:20
    Tagged date                              : UTC 2015-09-19 21:51:45
    Copyright                                : © 2015 Sony Pictures Worldwide Acquisitions Inc. All Rights Reserved.
    Cover                                    : Yes
    sonm                                     : Insidious: Chapter 3
    desc                                     : История о том, как одаренный экстрасенс Элис Рейнер неохотно соглашается использовать свои способности для установления связи с мертвыми, чтобы помочь девочке-подростку, которая стала мишенью для опасной сверхъестественной сущности.
    ldes                                     : История о том, как одаренный экстрасенс Элис Рейнер неохотно соглашается использовать свои способности для установления связи с мертвыми, чтобы помочь девочке-подростку, которая стала мишенью для опасной сверхъестественной сущности.
    stik                                     : 9
    rtng                                     : 0
    cnID                                     : 997549511
    xid                                      : Apple:vendor_id:2015-798277
    iTunEXTC                                 : mpaa|PG-13|300|
    iTunMOVI                                 : <?xml version=\"1.0\" encoding=\"UTF-8\"?> / <!DOCTYPE plist PUBLIC \"-//Apple//DTD PLIST 1.0//EN\" \"http://anonym.to/?http://www.apple.com/DTDs/PropertyList-1.0.dtd\"> / <plist version=\"1.0\"> / <dict> /  <key>cast</key> /  <array> /   <dict> /    <key>name</key> /    <string>Стефани Скотт</string> /   </dict> /   <dict> /    <key>name</key> /    <string>Дермот Малруни</string> /   </dict> /   <dict> /    <key>name</key> /    <string>Энгус Сэмпсон</string> /   </dict> /   <dict> /    <key>name</key> /    <string>Ли Уоннелл</string> /   </dict> /   <dict> /    <key>name</key> /    <string>Лин Шэй</string> /   </dict> /   <dict> /    <key>name</key> /    <string>Тейт Берни</string> /   </dict> /   <dict> /    <key>name</key> /    <string>Майкл Рид МакКей</string> /   </dict> /   <dict> /    <key>name</key> /    <string>Стив Култер</string> /   </dict> /   <dict> /    <key>name</key> /    <string>Хейли Кийоко</string> /   </dict> /   <dict> /    <key>name</key> /    <string>Корбетт Так</string> /   </dict> /   <dict> /    <key>name</key> /    <string>Евгения Ваган</string> /   </dict> /   <dict> /    <key>name</key> /    <string>Денис Беспалый</string> /   </dict> /   <dict> /    <key>name</key> /    <string>Борис Шувалов</string> /   </dict> /   <dict> /    <key>name</key> /    <string>Иван Калинин</string> /   </dict> /   <dict> /    <key>name</key> /    <string>Любовь Германова</string> /   </dict> /  </array> /  <key>directors</key> /  <array> /   <dict> /    <key>name</key> /    <string>Ли Уоннелл</string> /   </dict> /  </array> /  <key>producers</key> /  <array> /   <dict> /    <key>name</key> /    <string>Джейсон Блум</string> /   </dict> /   <dict> /    <key>name</key> /    <string>Орен Пели</string> /   </dict> /   <dict> /    <key>name</key> /    <string>Джеймс Ван</string> /   </dict> /  </array> /  <key>screenwriters</key> /  <array> /   <dict> /    <key>name</key> /    <string>Ли Уоннелл</string> /   </dict> /  </array> /  <key>studio</key> /  <string>Automatik Entertainment</string> / </dict> / </plist>
    Video #1
    ID                                       : 1
    Format                                   : AVC
    Format/Info                              : Advanced Video Codec
    Format profile                           : High@L3.1
    Format settings, CABAC                   : Yes
    Format settings, ReFrames                : 9 frames
    Codec ID                                 : avc1
    Codec ID/Info                            : Advanced Video Coding
    Duration                                 : 1h 37mn
    Bit rate mode                            : Variable
    Bit rate                                 : 2 200 Kbps
    Width                                    : 1 024 pixels
    Height                                   : 432 pixels
    Display aspect ratio                     : 2.40:1
    Frame rate mode                          : Variable
    Frame rate                               : 23.976 fps
    Minimum frame rate                       : 23.810 fps
    Maximum frame rate                       : 24.390 fps
    Color space                              : YUV
    Chroma subsampling                       : 4:2:0
    Bit depth                                : 8 bits
    Scan type                                : Progressive
    Bits/(Pixel*Frame)                       : 0.207
    Stream size                              : 1.50 GiB (87%)
    Writing library                          : x264 core 142 r2479 dd79a61
    Encoding settings                        : cabac=1 / ref=9 / deblock=1:0:0 / analyse=0x3:0x113 / me=umh / subme=9 / psy=1 / psy_rd=1.00:0.00 / mixed_ref=1 / me_range=32 / chroma_me=1 / trellis=1 / 8x8dct=1 / cqm=0 / deadzone=21,11 / fast_pskip=1 / chroma_qp_offset=-2 / threads=36 / lookahead_threads=3 / sliced_threads=0 / nr=0 / decimate=1 / interlaced=0 / bluray_compat=0 / constrained_intra=0 / bframes=6 / b_pyramid=2 / b_adapt=2 / b_bias=0 / direct=1 / weightb=1 / open_gop=0 / weightp=2 / keyint=240 / keyint_min=24 / scenecut=40 / intra_refresh=0 / rc_lookahead=40 / rc=2pass / mbtree=1 / bitrate=2200 / ratetol=1.0 / qcomp=0.60 / qpmin=0 / qpmax=69 / qpstep=4 / cplxblur=20.0 / qblur=0.5 / ip_ratio=1.40 / aq=1:1.00
    Language                                 : English
    Encoded date                             : UTC 2015-09-19 21:50:20
    Tagged date                              : UTC 2015-09-19 21:50:25
    Color primaries                          : BT.709-5, BT.1361, IEC 61966-2-4, SMPTE RP177
    Transfer characteristics                 : BT.709-5, BT.1361
    Matrix coefficients                      : BT.709-5, BT.1361, IEC 61966-2-4 709, SMPTE RP177
    Video #2
    ID                                       : 9
    Format                                   : JPEG
    Codec ID                                 : jpeg
    Duration                                 : 1h 37mn
    Bit rate mode                            : Variable
    Bit rate                                 : 813 bps
    Width                                    : 640 pixels
    Height                                   : 270 pixels
    Display aspect ratio                     : 2.40:1
    Frame rate mode                          : Variable
    Frame rate                               : 0.003 fps
    Minimum frame rate                       : 0.002 fps
    Maximum frame rate                       : 0.012 fps
    Color space                              : YUV
    Chroma subsampling                       : 4:2:0
    Bit depth                                : 8 bits
    Compression mode                         : Lossy
    Bits/(Pixel*Frame)                       : 1.568
    Stream size                              : 529 KiB (0%)
    Encoded date                             : UTC 2015-09-19 21:50:44
    Tagged date                              : UTC 2015-09-19 21:50:44
    Audio #1
    ID                                       : 2
    Format                                   : AAC
    Format/Info                              : Advanced Audio Codec
    Format profile                           : LC
    Codec ID                                 : 40
    Duration                                 : 1h 37mn
    Bit rate mode                            : Variable
    Bit rate                                 : 156 Kbps
    Maximum bit rate                         : 238 Kbps
    Channel(s)                               : 2 channels
    Channel positions                        : Front: L R
    Sampling rate                            : 48.0 KHz
    Compression mode                         : Lossy
    Stream size                              : 109 MiB (6%)
    Language                                 : Russian
    Encoded date                             : UTC 2015-09-19 21:50:20
    Tagged date                              : UTC 2015-09-19 21:50:40
    Audio #2
    ID                                       : 3
    Format                                   : AAC
    Format/Info                              : Advanced Audio Codec
    Format profile                           : LC
    Codec ID                                 : 40
    Duration                                 : 1h 37mn
    Bit rate mode                            : Variable
    Bit rate                                 : 150 Kbps
    Maximum bit rate                         : 256 Kbps
    Channel(s)                               : 2 channels
    Channel positions                        : Front: L R
    Sampling rate                            : 48.0 KHz
    Compression mode                         : Lossy
    Stream size                              : 105 MiB (6%)
    Language                                 : English
    Encoded date                             : UTC 2015-09-19 21:50:20
    Tagged date                              : UTC 2015-09-19 21:50:40
    Text #1
    ID                                       : 4
    Format                                   : Timed text
    Muxing mode                              : sbtl
    Codec ID                                 : tx3g
    Duration                                 : 29mn 7s
    Bit rate mode                            : Variable
    Bit rate                                 : 2 bps
    Stream size                              : 401 Bytes (0%)
    Language                                 : Russian
    Encoded date                             : UTC 2015-09-19 21:50:20
    Tagged date                              : UTC 2015-09-19 21:50:29
    Text #2
    ID                                       : 5
    Format                                   : Timed text
    Muxing mode                              : sbtl
    Codec ID                                 : tx3g
    Duration                                 : 1h 37mn
    Bit rate mode                            : Variable
    Bit rate                                 : 65 bps
    Stream size                              : 46.4 KiB (0%)
    Language                                 : Russian
    Encoded date                             : UTC 2015-09-19 21:50:20
    Tagged date                              : UTC 2015-09-19 21:50:39
    Text #3
    ID                                       : 6
    Format                                   : Timed text
    Muxing mode                              : sbtl
    Codec ID                                 : tx3g
    Duration                                 : 1h 29mn
    Bit rate mode                            : Variable
    Bit rate                                 : 44 bps
    Stream size                              : 28.7 KiB (0%)
    Language                                 : English
    Encoded date                             : UTC 2015-09-19 21:50:20
    Tagged date                              : UTC 2015-09-19 21:50:39
    Text #4
    ID                                       : 7
    Format                                   : Timed text
    Muxing mode                              : sbtl
    Codec ID                                 : tx3g
    Duration                                 : 1h 29mn
    Bit rate mode                            : Variable
    Bit rate                                 : 71 bps
    Stream size                              : 47.1 KiB (0%)
    Language                                 : Ukrainian
    Encoded date                             : UTC 2015-09-19 21:50:20
    Tagged date                              : UTC 2015-09-19 21:50:39
    Text #5
    ID                                       : 8
    Format                                   : Apple text
    Codec ID                                 : text
    Duration                                 : 1h 37mn
    Bit rate mode                            : Variable
    Bit rate                                 : 0 bps
    Stream size                              : 247 Bytes (0%)
    Language                                 : English
    Encoded date                             : UTC 2015-09-19 21:50:40
    Tagged date                              : UTC 2015-09-19 21:50:40
    Menu
    00:00:00.000                             : 1
    00:09:38.000                             : 2
    00:11:00.000                             : 3
    00:15:08.000                             : 4
    00:20:12.000                             : 5
    00:26:12.000                             : 6
    00:32:58.000                             : 7
    00:41:47.000                             : 8
    00:49:35.000                             : 9
    00:57:27.000                             : 10
    01:03:06.000                             : 11
    01:07:59.000                             : 12
    01:11:49.000                             : 13
    01:16:19.000                             : 14
    01:22:02.000                             : 15
    01:29:09.000                             : 16

    x264 лог

    x264 [info]: frame I:1161  Avg QP:10.00  size: 75636
    x264 [info]: frame P:35006 Avg QP:12.45  size: 23543
    x264 [info]: frame B:103873 Avg QP:14.49  size:  6680
    x264 [info]: consecutive B-frames:  2.0%  3.1%  5.0% 64.4% 10.2% 13.5%  1.9%
    x264 [info]: mb I  I16..4:  6.6% 74.5% 18.9%
    x264 [info]: mb P  I16..4:  1.3%  7.1%  1.3%  P16..4: 31.0% 31.3% 23.5%  0.0%  0.0%    skip: 4.7%
    x264 [info]: mb B  I16..4:  0.1%  0.6%  0.1%  B16..8: 33.0% 15.1%  4.6%  direct: 6.6%  skip:39.9%  L0:43.4% L1:43.7% BI:12.9%
    x264 [info]: 8x8 transform intra:73.8% inter:63.9%
    x264 [info]: coded y,uvDC,uvAC intra: 88.6% 88.4% 79.6% inter: 29.9% 29.6% 10.5%
    x264 [info]: i16 v,h,dc,p: 37% 12% 10% 41%
    x264 [info]: i8 v,h,dc,ddl,ddr,vr,hd,vl,hu: 13%  9% 11%  9% 11% 12% 11% 12% 13%
    x264 [info]: i4 v,h,dc,ddl,ddr,vr,hd,vl,hu: 12%  9%  4%  9% 14% 14% 13% 12% 13%
    x264 [info]: i8c dc,h,v,p: 53% 18% 16% 12%
    x264 [info]: Weighted P-Frames: Y:4.0% UV:2.3%
    x264 [info]: ref P L0: 51.6%  5.5% 18.1%  7.4%  5.7%  4.1%  3.5%  2.0%  1.9%  0.2%  0.0%
    x264 [info]: ref B L0: 72.0% 13.7%  6.0%  3.0%  2.1%  1.7%  1.1%  0.4%
    x264 [info]: ref B L1: 93.2%  6.8%
    x264 [info]: kb/s:2199.47

    Скриншоты

    -

    Релиз подготовлен для просмотра на Apple TV, iPad, iPhone, iPod Touch.
    Для просмотра данного релиза на компьютере с ОС Windows рекомендуется использовать VLC media player
    Скачать .torrent

    Скачать торрент-файл бесплатно и на максимальной скорости!

    Как скачивать? · Что такое торрент? · Рейтинг и ограничения

    !ВНИМАНИЕ!
    Сайт не распространяет и не хранит электронные версии произведений, а занимается лишь лишь предоставлением доступа к создаваемому пользователями каталогу ссылок на торрент-файлы, которые содержат только списки хеш-сумм, убедительная просьба с жалобами обращаться напрямую к пользователю. Файлы для обмена на трекере предоставлены пользователями сайта, и администрация не несёт ответственности за их содержание. Просьба не заливать файлы, защищенные авторскими правами, а также файлы нелегального содержания!


    _________________
    [Профиль] [ЛС]
    Показать сообщения:    
    Ответить на тему

    Текущее время: Сегодня, в 00:19

    Часовой пояс: GMT + 2



    Вы не можете начинать темы
    Вы не можете отвечать на сообщения
    Вы не можете редактировать свои сообщения
    Вы не можете удалять свои сообщения
    Вы не можете голосовать в опросах
    Вы не можете прикреплять файлы к сообщениям
    Вы не можете скачивать файлы