BitTorrentTracker PerecTracker.org
BitTorrentTracker PerecTracker.org
    
Регистрация  ·  Вход
 
 · 
Забыли пароль?

  • Безумный Макс: Дорога ярости / Mad Max: Fury Road (Джордж Миллер / George Miller) [2015, Австралия, США, боевик, фантастика, приключения, HDRip] AVO (антон карповский)

    Ответить на тему
     
    Автор Сообщение

    rechyn

    Создавать темы 20-Сен-2015 01:00

           

    [Цитировать]

    Безумный Макс: Дорога ярости / Mad Max: Fury Road
    Страна: Австралия, США
    Жанр: боевик, фантастика, приключения
    Год выпуска: 2015
    Продолжительность: 02:00:23
    Перевод: Авторский (одноголосый закадровый) антон карповский
    Cубтитры: нет
    Оригинальная аудиодорожка: нет
    Режиссер: Джордж Миллер / George Miller
    В ролях: Том Харди / Tom Hardy (Max Rockatansky), Шарлиз Терон / Charlize Theron (Imperator Furiosa), Николас Холт / Nicholas Hoult (Nux), Хью Кияс-Бёрн / Hugh Keays-Byrne (Immortan Joe), Райли Кио / Riley Keough (Capable), Роузи Хантингтон-Уайтли / Rosie Huntington-Whiteley (The Splendid Angharad), Зои Кравиц / Zoe Kravitz (Toast the Knowing), Эбби Ли / Abbey Lee (The Dag), Кортни Итон / Courtney Eaton (Cheedo the Fragile), Нэйтан Джонс / Nathan Jones (Rictus Erectus), Джош Хелман / Josh Helman (Slit), Джон Ховард / John Howard (The People Eater)
    Описание: Преследуемый призраками беспокойного прошлого, Макс уверен, что лучший способ выжить - скитаться в одиночестве. Несмотря на это, он присоединяется к бунтарям, бегущим через всю пустыню на боевой фуре, под предводительством военачальника Фуриосы.
    Они пытаются сбежать из Цитадели, страдающей от тирании Несмертного Джо, у которого они забрали кое-что очень ценное. Разъярённый военачальник бросает все свои силы на погоню за мятежниками, ступая на дорогу войны - дорогу ярости.
    Доп. информация: исходник - Mad Max - Fury Road 2015 720p Bluray DD5 1 x264-BluPanther
    Сэмпл: http://sendfile.su/1155732
    Качество видео: HDRip
    Формат видео: AVI
    Видео: XVID , 704х296 , 2,40:1 , 23,976 кадра/сек , 1221 Кбит/сек
    Аудио: ас3 , 48,0 КГц , 384 Кбит/сек , 5.1 сн

    MediaInfo

    Общее
    Полное имя : E:\Video\безумный макс 4.avi
    Формат : AVI
    Формат/Информация : Audio Video Interleave
    Профиль формата : OpenDML
    Размер файла : 1,36 Гбайт
    Продолжительность : 2 ч. 0 м.
    Общий поток : 1616 Кбит/сек
    Название фильма : 徨珞祉 з€ЁзЉџ 4
    Программа кодирования : Lavf56.9.100
    Видео
    Идентификатор : 0
    Формат : MPEG-4 Visual
    Профиль формата : Advanced Simple@L5
    Параметр BVOP формата : 2
    Параметр QPel формата : Нет
    Параметр GMC формата : Без точки перехода
    Параметр матрицы формата : Default (MPEG)
    Режим смешивания : Сжатый битовый поток
    Идентификатор кодека : XVID
    Идентификатор кодека/Подсказка : XviD
    Продолжительность : 2 ч. 0 м.
    Битрейт : 1221 Кбит/сек
    Ширина : 704 пикселя
    Высота : 296 пикселей
    Соотношение сторон : 2,40:1
    Частота кадров : 23,976 кадра/сек
    Цветовое пространство : YUV
    Субдискретизация насыщенности : 4:2:0
    Битовая глубина : 8 бит
    Тип развёртки : Прогрессивная
    Метод сжатия : С потерями
    Бит/(Пиксели*Кадры) : 0.244
    Размер потока : 1,03 Гбайт (76%)
    Библиотека кодирования : XviD 64
    Аудио
    Идентификатор : 1
    Формат : AC-3
    Формат/Информация : Audio Coding 3
    Расширение режима : CM (complete main)
    Параметр Endianness формата : Big
    Идентификатор кодека : 2000
    Продолжительность : 2 ч. 0 м.
    Вид битрейта : Постоянный
    Битрейт : 384 Кбит/сек
    Каналы : 6 каналов
    Расположение каналов : Front: L C R, Side: L R, LFE
    Частота : 48,0 КГц
    Битовая глубина : 16 бит
    Метод сжатия : С потерями
    Размер потока : 331 Мбайт (24%)
    Выравнивание : Соединение по промежуткам
    Продолжительность промежутка : 32 мс. (0,77 видеокадр)

    Скриншот c названием фильма

    Скриншоты




    Скачать .torrent

    Скачать торрент-файл бесплатно и на максимальной скорости!

    Как скачивать? · Что такое торрент? · Рейтинг и ограничения

    !ВНИМАНИЕ!
    Сайт не распространяет и не хранит электронные версии произведений, а занимается лишь лишь предоставлением доступа к создаваемому пользователями каталогу ссылок на торрент-файлы, которые содержат только списки хеш-сумм, убедительная просьба с жалобами обращаться напрямую к пользователю. Файлы для обмена на трекере предоставлены пользователями сайта, и администрация не несёт ответственности за их содержание. Просьба не заливать файлы, защищенные авторскими правами, а также файлы нелегального содержания!


    _________________
    [Профиль] [ЛС]
    Показать сообщения:    
    Ответить на тему

    Текущее время: Сегодня, в 21:30

    Часовой пояс: GMT + 2



    Вы не можете начинать темы
    Вы не можете отвечать на сообщения
    Вы не можете редактировать свои сообщения
    Вы не можете удалять свои сообщения
    Вы не можете голосовать в опросах
    Вы не можете прикреплять файлы к сообщениям
    Вы не можете скачивать файлы