Register  ·  Log in
Forgot password?

  • Правдивая история / True Story (Руперт Гулд / Rupert Goold) [2015, США, Триллер, драма, детектив, BDRip] MVO

    Reply to topic
    Author Message


    Post 20-Sep-2015 02:00



    Правдивая история / True Story-Год выпуска: 2015
    Выпущено: США / New Regency Pictures
    Жанр: триллер, драма, детектив
    Продолжительность: 01:39:25
    Перевод: Профессиональный (многоголосый закадровый)
    Cубтитры: нет-Режиссер:
    Руперт Гулд / Rupert Goold-В ролях:
    Джона Хилл (Michael Finkel), Джеймс Франко (Christian Longo), Фелисити Джонс (Jill Barker), Мария Диззия (MaryJane Longo), Итан Сапли (Pat Frato), Конор Кикот (Zach Longo), Шарлотта Дрисколл (Sadie Longo), Стелла Рэй Пэйн (Madison Longo), Роберт Джон Бёрк (Greg Ganley), Байрон Дженнингс (Judge Odenkirk), Гретхен Мол (Karen Hannen)-Описание:
    История взаимоотношений журналиста Майкла Финкеля и убийцы, разыскиваемого ФБР, по имени Кристиан Лонго, который много лет скрывался за пределами США под именем Финкеля.-Релиз групп
    | | IMDB | КиноПоиск | Сэмпл |-Качество: BDRip [True.Story.2015.1080p.BluRay.AVC.DTS-HD.MA.5.1-RARBG]
    Формат: AVI
    Видео: 720x384 (1.88:1), 23.976 fps, XviD build 73 ~1706 kbps avg, 0.26 bit/pixel
    Аудио: 48 kHz, AC3 Dolby Digital, 3/2 (L,C,R,l,r) + LFE ch, ~384.00 kbps avg-



    Complete name                            : D:\Pravdivaya_istoriya_2015_BDRip_by_Dalemake.avi
    Format                                   : AVI
    Format/Info                              : Audio Video Interleave
    File size                                : 1.46 GiB
    Duration                                 : 1h 39mn
    Overall bit rate                         : 2 100 Kbps
    Writing application                      : VirtualDubMod | || (build 2550/release)
    Writing library                          : VirtualDubMod build 2550/release
    ID                                       : 0
    Format                                   : MPEG-4 Visual
    Format profile                           : Advanced Simple@L5
    Format settings, BVOP                    : 1
    Format settings, QPel                    : No
    Format settings, GMC                     : No warppoints
    Format settings, Matrix                  : Custom
    Codec ID                                 : XVID
    Codec ID/Hint                            : XviD
    Duration                                 : 1h 39mn
    Bit rate                                 : 1 707 Kbps
    Width                                    : 720 pixels
    Height                                   : 384 pixels
    Display aspect ratio                     : 1.85:1
    Frame rate                               : 23.976 fps
    Color space                              : YUV
    Chroma subsampling                       : 4:2:0
    Bit depth                                : 8 bits
    Scan type                                : Progressive
    Compression mode                         : Lossy
    Bits/(Pixel*Frame)                       : 0.257
    Stream size                              : 1.19 GiB (81%)
    Writing library                          : XviD 73
    ID                                       : 1
    Format                                   : AC-3
    Format/Info                              : Audio Coding 3
    Mode extension                           : CM (complete main)
    Format settings, Endianness              : Big
    Codec ID                                 : 2000
    Duration                                 : 1h 39mn
    Bit rate mode                            : Constant
    Bit rate                                 : 384 Kbps
    Channel(s)                               : 6 channels
    Channel positions                        : Front: L C R, Side: L R, LFE
    Sampling rate                            : 48.0 KHz
    Bit depth                                : 16 bits
    Compression mode                         : Lossy
    Stream size                              : 273 MiB (18%)
    Alignment                                : Split accross interleaves
    Interleave, duration                     : 42 ms (1.00 video frame)
    Interleave, preload duration             : 500 ms


    Фильм озвучен студией Paradox & Omskbird records, при участии Петра Гланца-Иващенко!
    Текст читали: Петр Гланц-Иващенко, Максим Максимов, Павел Ярощик и Анастасия Флигина!
    Перевод: Дмитрий Микушин
    Download .torrent

    Download free and at maximum speed!

    How to Download? · What is a torrent? · Ratings and Limitations

    The site does not extend and does not store electronic(digital) versions of products, and only gives access to a reference catalogue created by users on torrent-files which contain only lists of the hash-sums, the earnest entreaty, with complaints(abuse) to access directly to the user. Files for an exchange on tracker are given by users of a site, and the administration does not bear the responsibility for their maintenance. The request to not fill in the files protected by copyrights, and also files of the illegal maintenance!

    [Profile] [PM]
    Display posts from previous:    
    Reply to topic

    The time now is: Today 11:57

    All times are GMT + 3 Hours

    You cannot post new topics in this forum
    You cannot reply to topics in this forum
    You cannot edit your posts in this forum
    You cannot delete your posts in this forum
    You cannot vote in polls in this forum
    You cannot attach files in this forum
    You cannot download files in this forum