BitTorrentTracker PerecTracker.org
BitTorrentTracker PerecTracker.org
    
Регистрация  ·  Вход
 
 · 
Забыли пароль?

  • За пределами закона (Андрей Джунковский) [2010, криминал, детектив, HDTVRip]

    Ответить на тему
     
    Автор Сообщение

    rechyn

    Создавать темы 20-Сен-2015 01:00

           

    [Цитировать]

    За пределами закона
    Жанр: криминал, детектив
    Год выпуска: 2010
    Продолжительность: 01:33:10
    Режиссёр: Андрей Джунковский
    В ролях: Геннадий Венгеров, Николай Добрынин, Лилиан Наврозашвили, Никита Агапов, Антон Багмет, Дмитрий Сутырин, Анна Райкова, Любовь Виролайнен, Павел Богомолов, Максим Драгой
    Описание: Из провинциального городка в Питер приезжает сорокашестилетний интеллигентный учитель вдовец Дмитрий Гордин. Недавно погибла его дочь Валя, которая училась в Питере в Университете на филологическом факультете (изучала английский и французский языки). Валя погибла, выпав из окна одной частной гостиницы. Ее смерть признали несчастным случаем. Дмитрий Гордин хочет забрать тело дочери для того, чтобы похоронить ее в родном городке. Но, как оказалось, девушку похоронили за день до его приезда, как неопознанный труп.
    Гордин в растерянности. Он идет в милицию и требует, чтобы ему показали дело, которое было заведено из-за смерти дочери. Дмитрию не удается добиться правды. Никто не может ему сказать, почему дочь похоронили без него. Дмитрий Гордин начинает собственное расследование. Очень быстро становится ясно, что кому-то очень не выгодно, чтобы была раскрыта тайна смерти Вали. На самого Гордина объявлена охота.

    Качество видео: HDTVRip
    Формат видео: AVI
    Видео: 624x352 (1.77:1), 25 fps, XviD build 73 ~980 kbps avg, 0.18 bit/pixel
    Аудио: 48 kHz, MPEG Layer 3, 2 ch, ~128.00 kbps avg

    MediaInfo

    Общее
    Полное имя : S:\Фильмы\За пределами закона. 2010. HDTVRip. 745 (AleksSin).avi
    Формат : AVI
    Формат/Информация : Audio Video Interleave
    Размер файла : 745 Мбайт
    Продолжительность : 1 ч. 33 м.
    Общий поток : 1117 Кбит/сек
    Программа кодирования : VirtualDubMod 1.5.10.3 | www.virtualdub-fr.org || (build 2550/release)
    Библиотека кодирования : VirtualDubMod build 2550/release
    Видео
    Идентификатор : 0
    Формат : MPEG-4 Visual
    Профиль формата : Advanced Simple@L5
    Параметр BVOP формата : 1
    Параметр QPel формата : Нет
    Параметр GMC формата : Без точки перехода
    Параметр матрицы формата : Выборочная
    Идентификатор кодека : XVID
    Идентификатор кодека/Подсказка : XviD
    Продолжительность : 1 ч. 33 м.
    Битрейт : 980 Кбит/сек
    Ширина : 624 пикселя
    Высота : 352 пикселя
    Соотношение сторон : 16:9
    Частота кадров : 25,000 кадров/сек
    Цветовое пространство : YUV
    Субдискретизация насыщенности : 4:2:0
    Битовая глубина : 8 бит
    Тип развёртки : Прогрессивная
    Метод сжатия : С потерями
    Бит/(Пиксели*Кадры) : 0.178
    Размер потока : 653 Мбайт (88%)
    Библиотека кодирования : XviD 73
    Аудио
    Идентификатор : 1
    Формат : MPEG Audio
    Версия формата : Version 1
    Профиль формата : Layer 3
    Идентификатор кодека : 55
    Идентификатор кодека/Подсказка : MP3
    Продолжительность : 1 ч. 33 м.
    Вид битрейта : Постоянный
    Битрейт : 128 Кбит/сек
    Каналы : 2 канала
    Частота : 48,0 КГц
    Метод сжатия : С потерями
    Размер потока : 85,3 Мбайт (11%)
    Выравнивание : Соединение по промежуткам
    Продолжительность промежутка : 40 мс. (1,00 видеокадр)
    Время предзагрузки промежутка : 504 мс.
    Библиотека кодирования : LAME3.99r
    Настройки программы : -m s -V 4 -q 2 -lowpass 17 -b 128

    Скриншот c названием фильма

    Скриншоты

    Скачать .torrent

    Скачать торрент-файл бесплатно и на максимальной скорости!

    Как скачивать? · Что такое торрент? · Рейтинг и ограничения

    !ВНИМАНИЕ!
    Сайт не распространяет и не хранит электронные версии произведений, а занимается лишь лишь предоставлением доступа к создаваемому пользователями каталогу ссылок на торрент-файлы, которые содержат только списки хеш-сумм, убедительная просьба с жалобами обращаться напрямую к пользователю. Файлы для обмена на трекере предоставлены пользователями сайта, и администрация не несёт ответственности за их содержание. Просьба не заливать файлы, защищенные авторскими правами, а также файлы нелегального содержания!


    _________________
    [Профиль] [ЛС]
    Показать сообщения:    
    Ответить на тему

    Текущее время: Сегодня, в 19:57

    Часовой пояс: GMT + 2



    Вы не можете начинать темы
    Вы не можете отвечать на сообщения
    Вы не можете редактировать свои сообщения
    Вы не можете удалять свои сообщения
    Вы не можете голосовать в опросах
    Вы не можете прикреплять файлы к сообщениям
    Вы не можете скачивать файлы