BitTorrentTracker PerecTracker.org
BitTorrentTracker PerecTracker.org
    
Регистрация  ·  Вход
 
 · 
Забыли пароль?

  • Цвета / Colors (Деннис Хоппер / Dennis Hopper) [1988., США, драма, боевик, криминал, BDRemux 1080p] MVO + AVO + Original Eng

    Ответить на тему
     
    Автор Сообщение

    Flirldrerve

    Создавать темы 18-Сен-2015 23:36

           

    [Цитировать]

    Colors
    Страна: США
    Год выпуска: 1988
    Жанр: Драма, Боевик, Криминал
    Продолжительность: 1:59:51
    Перевод 1: Профессиональный (многоголосый закадровый) [5`й канал Санкт-Петербург]
    Перевод 2: Авторский (одноголосый закадровый) [Юрий Сербин]
    Оригинальная аудиодорожка: Английская
    Режиссер: Деннис Хоппер / Dennis Hopper
    Производство: Orion Pictures
    В ролях: Шон Пенн (Sean Penn), Роберт Дювалл (Robert Duvall), Мария Кончита Алонсо (Maria Conchita Alonso), Рэнди Брукс (Randy Brooks), Гранд Л. Буш (Grand L. Bush), Дон Чидл (Don Cheadle), Жерардо Мейя (Gerardo Mejía), Гленн Пламмер (Glenn Plummer), Руди Рамос (Rudy Ramos), Сай Ричардсон (Sy Richardson) и другие.
    Описание: Лос-Анджелес захлестнула волна преступности. В городе орудуют сотни преступных группировок, в которых состоит более 70000 человек. Ежедневно в бандитских разборках гибнут мирные жители. Такое положение вещей не устраивает двух «горячих» полицейских.
    Один из них — умудренный опытом и чрезвычайно жестокий, второй — молодой, но с очень крутым нравом. Вместе они пытаются остановить насилие на улицах города. Постепенно ситуация выходит из-под контроля, и Лос-Анджелес превращается в кровавое поле боя. И без того напряженное положение осложняется любовной интригой, возникшей между молодым полицейским и прекрасной девушкой, состоящей в одной из банд.
    Но смогут ли они быть вместе; ведь в мире, где правит жестокость, за ошибки приходится платить кровью. [КиноПоиск]
    Дополнительная информация: Сведение звука, - Softernet.
    Качество: BDRemux
    Контейнер: MKV
    Видео: MPEG-4 AVC / 29961 kbps / 1080p / 23.976 fps / 16:9
    Аудио 1: Russian / Dolby AC3 / 2.0 / 48 kHz / 192 kbps / 16 bit => [MVO]
    Аудио 2: Russian / Dolby AC3 / 2.0 / 48 kHz / 256 kbps / 16 bit => [AVO]
    Аудио 3: English / LPCM Audio / 2.0 / 48 kHz / 1536 kbps / 16 bit

    MediaInfo

    Формат : Matroska
    Версия формата : Version 4 / Version 2
    Размер файла : 26,7 Гбайт
    Продолжительность : 1 ч. 59 м.
    Режим общего битрейта : Переменный
    Общий поток : 31,9 Мбит/сек
    Дата кодирования : UTC 2015-09-15 19:42:00
    Программа кодирования : mkvmerge v8.3.0 ('Over the Horizon') 64bit
    Библиотека кодирования : libebml v1.3.1 + libmatroska v1.4.2
    DURATION : 01:59:50.685000000
    NUMBER_OF_FRAMES : 230102
    NUMBER_OF_BYTES : 1380611520
    _STATISTICS_WRITING_APP : mkvmerge v8.3.0 ('Over the Horizon') 64bit
    _STATISTICS_WRITING_DATE_UTC : 2015-09-15 19:42:00
    _STATISTICS_TAGS : BPS DURATION NUMBER_OF_FRAMES NUMBER_OF_BYTES
    Видео
    Идентификатор : 1
    Формат : AVC
    Формат/Информация : Advanced Video Codec
    Профиль формата : High@L4.1
    Параметр CABAC формата : Да
    Параметр ReFrames формата : 4 кадра
    Параметр GOP формата : M=3, N=24
    Идентификатор кодека : V_MPEG4/ISO/AVC
    Продолжительность : 1 ч. 59 м.
    Вид битрейта : Переменный
    Максимальный битрейт : 35,0 Мбит/сек
    Ширина : 1920 пикселей
    Высота : 1080 пикселей
    Соотношение сторон : 16:9
    Режим частоты кадров : Постоянный
    Частота кадров : 23,976 кадра/сек
    Стандарт вещания : NTSC
    Цветовое пространство : YUV
    Субдискретизация насыщенности : 4:2:0
    Битовая глубина : 8 бит
    Тип развёртки : Прогрессивная
    Default : Нет
    Forced : Нет
    Цветовой диапазон : Limited
    Основные цвета : BT.709
    Характеристики трансфера : BT.709
    Коэффициенты матрицы : BT.709
    DURATION : 01:59:50.683000000
    NUMBER_OF_FRAMES : 172404
    NUMBER_OF_BYTES : 26928570840
    _STATISTICS_WRITING_APP : mkvmerge v8.3.0 ('Over the Horizon') 64bit
    _STATISTICS_WRITING_DATE_UTC : 2015-09-15 19:42:00
    _STATISTICS_TAGS : BPS DURATION NUMBER_OF_FRAMES NUMBER_OF_BYTES
    Аудио #1
    Идентификатор : 2
    Формат : AC-3
    Формат/Информация : Audio Coding 3
    Расширение режима : CM (complete main)
    Параметр Endianness формата : Big
    Идентификатор кодека : A_AC3
    Продолжительность : 1 ч. 59 м.
    Вид битрейта : Постоянный
    Битрейт : 192 Кбит/сек
    Каналы : 2 канала
    Расположение каналов : Front: L R
    Частота : 48,0 КГц
    Метод сжатия : С потерями
    Размер потока : 165 Мбайт (1%)
    Заголовок : MVO [5`й канал Санкт-Петербург]
    Язык : Russian
    Default : Нет
    Forced : Нет
    Аудио #2
    Идентификатор : 3
    Формат : AC-3
    Формат/Информация : Audio Coding 3
    Расширение режима : CM (complete main)
    Параметр Endianness формата : Big
    Идентификатор кодека : A_AC3
    Продолжительность : 1 ч. 59 м.
    Вид битрейта : Постоянный
    Битрейт : 256 Кбит/сек
    Каналы : 2 канала
    Расположение каналов : Front: L R
    Частота : 48,0 КГц
    Метод сжатия : С потерями
    Размер потока : 219 Мбайт (1%)
    Заголовок : AVO [Юрий Сербин]
    Язык : Russian
    Default : Нет
    Forced : Нет
    Аудио #3
    Идентификатор : 4
    Формат : PCM
    Идентификатор кодека : A_PCM/INT/LIT
    Продолжительность : 1 ч. 59 м.
    Вид битрейта : Постоянный
    Каналы : 2 канала
    Частота : 48,0 КГц
    Битовая глубина : 16 бит
    Заголовок : Original
    Язык : English
    Default : Нет
    Forced : Нет

    Screenshots

    Скачать .torrent

    Скачать торрент-файл бесплатно и на максимальной скорости!

    Как скачивать? · Что такое торрент? · Рейтинг и ограничения

    !ВНИМАНИЕ!
    Сайт не распространяет и не хранит электронные версии произведений, а занимается лишь лишь предоставлением доступа к создаваемому пользователями каталогу ссылок на торрент-файлы, которые содержат только списки хеш-сумм, убедительная просьба с жалобами обращаться напрямую к пользователю. Файлы для обмена на трекере предоставлены пользователями сайта, и администрация не несёт ответственности за их содержание. Просьба не заливать файлы, защищенные авторскими правами, а также файлы нелегального содержания!


    _________________
    [Профиль] [ЛС]
    Показать сообщения:    
    Ответить на тему

    Текущее время: Сегодня, в 18:54

    Часовой пояс: GMT + 2



    Вы не можете начинать темы
    Вы не можете отвечать на сообщения
    Вы не можете редактировать свои сообщения
    Вы не можете удалять свои сообщения
    Вы не можете голосовать в опросах
    Вы не можете прикреплять файлы к сообщениям
    Вы не можете скачивать файлы