BitTorrentTracker PerecTracker.org
BitTorrentTracker PerecTracker.org
    
Регистрация  ·  Вход
 
 · 
Забыли пароль?

  • Кто я / Who Am I - Kein System ist sicher (Баран бо Одар / Baran bo Odar) [2014, Германия, Триллер, BDRip] Dub

    Ответить на тему
     
    Автор Сообщение

    Light

    Создавать темы 18-Сен-2015 02:36

           

    [Цитировать]

    Кто я / Who Am I - Kein System ist sicher
    «Каждый видит то, что хочет видеть»
    -Год выпуска: 2014
    Выпущено: Германия / Seven Pictures
    Жанр: триллер
    Продолжительность: 01:41:48
    Перевод: Профессиональный (полное дублирование) BD RUS
    Cубтитры: нет-Режиссер:
    Баран бо Одар / Baran bo Odar-В ролях:
    Том Шиллинг (Benjamin), Элиас ЭмБарек (Max), Вотан Вильке Мёринг (Stephan), Антуан Моно мл. (Paul), Ханна Херцшпрунг (Marie), Штефан Кампвирт (Martin Bohmer), Трине Дюрхольм (Hanne Lindberg), Леопольд Хорнунг (Oskar), Катарина Матц (Hilde Engel), Леонхард Каров (MRX)-Описание:
    Бенджамин — молодой компьютерный гений. С детства он мечтает стать супергероем из комиксов и покорить мир. Но в реальном мире он — Никто. Его жизнь неожиданно меняется, когда он встречает свою полную противоположность — харизматичного парня Макса.
    Не желая жить в жестких рамках системы, они совершают череду дерзких кибер-преступлений. Восстав против равнодушного общества, они становятся кумирами для целого поколения.
    Теперь Бенджамин не просто супергерой, он — самый разыскиваемый хакер в мире. Но что его ждет после погружения в альтернативную реальность? Кто же он на самом деле?…-Релиз групп
    | | IMDB | КиноПоиск | Сэмпл |-Качество: BDRip [Blu-Ray Disc | GER Transfer | 1080i | NOVALAN]
    Формат: AVI
    Видео: 720x304 (2.37:1), 25 fps, XviD build 73 ~1661 kbps avg, 0.30 bit/pixel
    Аудио: 48 kHz, AC3 Dolby Digital, 3/2 (L,C,R,l,r) + LFE ch, ~384.00 kbps avg-

    Скриншоты

    MediaInfo

    General
    Complete name                            : D:\Kto_Ya_2014_BDRip_by_Dalemake.avi
    Format                                   : AVI
    Format/Info                              : Audio Video Interleave
    File size                                : 1.46 GiB
    Duration                                 : 1h 41mn
    Overall bit rate                         : 2 055 Kbps
    Writing application                      : VirtualDubMod 1.5.10.3 | www.virtualdub-fr.org || (build 2550/release)
    Writing library                          : VirtualDubMod build 2550/release
    Video
    ID                                       : 0
    Format                                   : MPEG-4 Visual
    Format profile                           : Advanced Simple@L5
    Format settings, BVOP                    : 1
    Format settings, QPel                    : No
    Format settings, GMC                     : No warppoints
    Format settings, Matrix                  : Custom
    Codec ID                                 : XVID
    Codec ID/Hint                            : XviD
    Duration                                 : 1h 41mn
    Bit rate                                 : 1 662 Kbps
    Width                                    : 720 pixels
    Height                                   : 304 pixels
    Display aspect ratio                     : 2.35:1
    Frame rate                               : 25.000 fps
    Color space                              : YUV
    Chroma subsampling                       : 4:2:0
    Bit depth                                : 8 bits
    Scan type                                : Progressive
    Compression mode                         : Lossy
    Bits/(Pixel*Frame)                       : 0.304
    Stream size                              : 1.18 GiB (81%)
    Writing library                          : XviD 73
    Audio
    ID                                       : 1
    Format                                   : AC-3
    Format/Info                              : Audio Coding 3
    Mode extension                           : CM (complete main)
    Format settings, Endianness              : Big
    Codec ID                                 : 2000
    Duration                                 : 1h 41mn
    Bit rate mode                            : Constant
    Bit rate                                 : 384 Kbps
    Channel(s)                               : 6 channels
    Channel positions                        : Front: L C R, Side: L R, LFE
    Sampling rate                            : 48.0 KHz
    Bit depth                                : 16 bits
    Compression mode                         : Lossy
    Stream size                              : 280 MiB (19%)
    Alignment                                : Split accross interleaves
    Interleave, duration                     : 40 ms (1.00 video frame)
    Interleave, preload duration             : 500 ms
    -
    Скачать .torrent

    Скачать торрент-файл бесплатно и на максимальной скорости!

    Как скачивать? · Что такое торрент? · Рейтинг и ограничения

    !ВНИМАНИЕ!
    Сайт не распространяет и не хранит электронные версии произведений, а занимается лишь лишь предоставлением доступа к создаваемому пользователями каталогу ссылок на торрент-файлы, которые содержат только списки хеш-сумм, убедительная просьба с жалобами обращаться напрямую к пользователю. Файлы для обмена на трекере предоставлены пользователями сайта, и администрация не несёт ответственности за их содержание. Просьба не заливать файлы, защищенные авторскими правами, а также файлы нелегального содержания!


    _________________
    [Профиль] [ЛС]
    Показать сообщения:    
    Ответить на тему

    Текущее время: Сегодня, в 21:57

    Часовой пояс: GMT + 2



    Вы не можете начинать темы
    Вы не можете отвечать на сообщения
    Вы не можете редактировать свои сообщения
    Вы не можете удалять свои сообщения
    Вы не можете голосовать в опросах
    Вы не можете прикреплять файлы к сообщениям
    Вы не можете скачивать файлы