BitTorrentTracker PerecTracker.org
BitTorrentTracker PerecTracker.org
    
Регистрация  ·  Вход
 
 · 
Забыли пароль?

  • Хулиган / Hellion (Кэт Кэндлер / Kat Candler) [2014, США, драма, триллер, BDRip] Dub + Original Eng + subs (Rus, Eng)

    Ответить на тему
     
    Автор Сообщение

    Light

    Создавать темы 17-Сен-2015 18:12

           

    [Цитировать]

    Хулиган / Hellion-Год выпуска: 2014
    Страна: США
    Жанр: драма, триллер
    Продолжительность: 01:39:01
    Перевод: Профессиональный (полное дублирование) R5
    + Оригинальная звуковая дорожка
    Субтитры: Русские, английские (внешние srt*)-Режиссер: Кэт Кэндлер / Kat Candler
    В ролях: Аарон Пол, Джульетт Льюис, Джош Уиггинс, Дек Гарнер, Далтон Саттон, Кэмрон Оуэнс, Дилан Коул, Джонни Марс, Уолт Робертс, Аннали Джеффрис
    О фильме: Отца двух мальчиков Холлиса лишают родительских прав, забрав младшего сына.
    Это становится точкой невозврата для старшего сына Джейкоба, увлекающегося гонками. Восставший против отца, страстно одержимый только двумя вещами: выиграть чемпионат по мотокроссу и вернуть младшего брата домой, Джейкоб не остановится ни перед чем… Совершая одно преступление за другим, отчаянный 13-летний трудный подросток, мастерски уходит от погони.
    Отцу в одиночку предстоит сразиться с системой, вернуть обоих сыновей и повернуть жизнь в прежнее русло.
    Релиз:
    Автор: yaroslaigor
    Качество: BDRip (источник: / BD-Remux / 1080p)
    Формат: AVI
    Видео: 704x400 (1.76:1), 23.976 fps, XviD build 65 ~2253 kbps avg, 0.33 bit/pixel
    Аудио #1: 48 kHz, AC3 Dolby Digital, 3/2 (L,C,R,l,r) + LFE ch, ~448.00 kbps avg rus
    Аудио #2: 48 kHz, AC3 Dolby Digital, 3/2 (L,C,R,l,r) + LFE ch, ~448.00 kbps avg eng
    Размер: 2235.10 Mb (1/2 DVD-R)
    Скачать: Семпл-

    Кадры из фильма


    -

    Mi

    Формат : AVI
    Формат/Информация : Audio Video Interleave
    Профиль формата : OpenDML
    Размер файла : 2,18 Гбайт
    Продолжительность : 1 ч. 39 м.
    Общий поток : 3156 Кбит/сек
    Название фильма : Хулиган / Hellion (2014) BDRip
    Режиссёр : yaroslaigor
    Жанр : драма, триллер
    Программа кодирования : VirtualDubMod 1.5.10.2 (build 2542/release)
    Правообладатель : HQCLUB
    Примечание : 13.09.2015
    Видео
    Идентификатор : 0
    Формат : MPEG-4 Visual
    Профиль формата : Advanced Simple@L5
    Параметр BVOP формата : 1
    Параметр QPel формата : Нет
    Параметр GMC формата : Без точки перехода
    Параметр матрицы формата : Выборочная
    Идентификатор кодека : XVID
    Идентификатор кодека/Подсказка : XviD
    Продолжительность : 1 ч. 39 м.
    Битрейт : 2242 Кбит/сек
    Ширина : 704 пикселя
    Высота : 400 пикселей
    Соотношение сторон : 16:9
    Частота кадров : 23,976 кадра/сек
    Цветовое пространство : YUV
    Субдискретизация насыщенности : 4:2:0
    Битовая глубина : 8 бит
    Тип развёртки : Прогрессивная
    Метод сжатия : С потерями
    Бит/(Пиксели*Кадры) : 0.332
    Размер потока : 1,55 Гбайт (71%)
    Библиотека кодирования : XviD 65
    Аудио #1
    Идентификатор : 1
    Формат : AC-3
    Формат/Информация : Audio Coding 3
    Расширение режима : CM (complete main)
    Параметр Endianness формата : Big
    Идентификатор кодека : 2000
    Продолжительность : 1 ч. 39 м.
    Вид битрейта : Постоянный
    Битрейт : 448 Кбит/сек
    Каналы : 6 каналов
    Расположение каналов : Front: L C R, Side: L R, LFE
    Частота : 48,0 КГц
    Битовая глубина : 16 бит
    Метод сжатия : С потерями
    Размер потока : 317 Мбайт (14%)
    Выравнивание : Разделение по промежуткам
    Продолжительность промежутка : 42 мс. (1,00 видеокадр)
    Время предзагрузки промежутка : 500 мс.
    Аудио #2
    Идентификатор : 2
    Формат : AC-3
    Формат/Информация : Audio Coding 3
    Расширение режима : CM (complete main)
    Параметр Endianness формата : Big
    Идентификатор кодека : 2000
    Продолжительность : 1 ч. 39 м.
    Вид битрейта : Постоянный
    Битрейт : 448 Кбит/сек
    Каналы : 6 каналов
    Расположение каналов : Front: L C R, Side: L R, LFE
    Частота : 48,0 КГц
    Битовая глубина : 16 бит
    Метод сжатия : С потерями
    Размер потока : 317 Мбайт (14%)
    Выравнивание : Разделение по промежуткам
    Продолжительность промежутка : 42 мс. (1,00 видеокадр)
    Время предзагрузки промежутка : 500 мс.
    -
    Скачать .torrent

    Скачать торрент-файл бесплатно и на максимальной скорости!

    Как скачивать? · Что такое торрент? · Рейтинг и ограничения

    !ВНИМАНИЕ!
    Сайт не распространяет и не хранит электронные версии произведений, а занимается лишь лишь предоставлением доступа к создаваемому пользователями каталогу ссылок на торрент-файлы, которые содержат только списки хеш-сумм, убедительная просьба с жалобами обращаться напрямую к пользователю. Файлы для обмена на трекере предоставлены пользователями сайта, и администрация не несёт ответственности за их содержание. Просьба не заливать файлы, защищенные авторскими правами, а также файлы нелегального содержания!


    _________________
    [Профиль] [ЛС]
    Показать сообщения:    
    Ответить на тему

    Текущее время: Сегодня, в 08:13

    Часовой пояс: GMT + 2



    Вы не можете начинать темы
    Вы не можете отвечать на сообщения
    Вы не можете редактировать свои сообщения
    Вы не можете удалять свои сообщения
    Вы не можете голосовать в опросах
    Вы не можете прикреплять файлы к сообщениям
    Вы не можете скачивать файлы