BitTorrentTracker PerecTracker.org
BitTorrentTracker PerecTracker.org
    
Регистрация  ·  Вход
 
 · 
Забыли пароль?

  • Грязь / Filth (Джон С. Бейрд / Jon S. Baird) [2013 г., Великобритания, драма, комедия, криминал, HDRip-AVC] 2x AVO (Д. Пучков, Ю. Сербин) + ENG + SUB (2x rus, eng)

    Ответить на тему
     
    Автор Сообщение

    Light

    Создавать темы 16-Сен-2015 17:00

           

    [Цитировать]

    Грязь / Filth
    «This Little Piggy went to town!»

    -
    Страна: Великобритания
    Жанр: триллер, комедия, криминал
    Год выпуска: 2013
    Продолжительность: 01:37:22-Перевод 1: Авторский (одноголосый закадровый) Д. Пучков
    Перевод 2: Авторский (одноголосый закадровый) Ю. Сербин
    Cубтитры: русские, английские-Режиссер: Джон С. Бейрд / Jon S. Baird
    В ролях: Джеймс МакЭвой, Джейми Белл, Эдди Марсан, Джим Бродбент, Имоджен Путс, Шона МакДональд, Ширли Хендерсон, Джон Сессионс, Гари Льюис, Иман Эллиотт, Йен де Кестекер, Джоанн Фроггатт
    Описание: Главный герой — продажный шотландский полицейский Брюс Робертсон, помешанный на сексе и кокаине. Ему бы надо расследовать убийство, но ему сильно мешают собственные странности, привычка разыгрывать коллег и беготня за девушками. За Робертсоном присматривают его напарник Рэй Леннокс и начальник Боб Тоал.-Качество видео: HDRip-AVC [BDRip 1080p HDCLub]
    Формат видео: MKV-Видео: х.264, 1120x476 (2.35:1), 24 fps, ~ 2978Кbps, 0.233 bit/pixel
    Аудио 1: AC3 384 Кбит/сек (6 ch), 48,0 КГц, 16 бит | AVO (Д. Пучков)
    Аудио 2: AC3 448 Кбит/сек (6 ch), 48,0 КГц, 16 бит | AVO (Ю. Сербин)
    Аудио 3: AC3 448 Кбит/сек (6 ch), 48,0 КГц, 16 бит | ENG
    Формат субтитров: SoftSub (SRT)
    --
    -

    Знаете ли вы, что...

    • Фильм снят по мотивам романа Ирвина Уэлша «Дерьмо» (Filth, 1998).
    • В ранних версиях сценария в машине должны были петь песню «I Wanna Know What Love Is» группы Foreigner. Но Ирвин Уэлш выбрал «Silver Lady».
    • Комната, в которой проходит консультация Брюса с доктором, очень похожа на комнату из фильма «2001 год: Космическая одиссея» (1968).
    • Одна из певиц в машине Дэвида Соула во время исполнения песни «Silver Lady» — это его дочь Хина Соул.
    • Съемки фильма проходили в Шотландии, Англии, Германии, Бельгии и Швеции.
    • В сцене, где больного Брюса тошнит, исполняющего его роль Джеймса МакЭвоя рвало по-настоящему.
    • Во время отпуска в Гамбурге Блейдси читает из путеводителя Брюсу о том, что современная Германия существует уже с 1865 года. Объединение Германии фактически произошло только в 1871 году.
    • В преддверии Рождества Брюс Робертсон днем читает футбольные результаты в витрине магазина. Это происходит около 16 часов 45 минут, в такое время года на улице должно быть уже темно.

    Ошибки в фильме

    Внимание! Список ошибок в фильме может содержать спойлеры. Будьте осторожны.
    • Во время отпуска в Гамбурге Блейдси читает из путеводителя Брюсу о том, что современная Германия существует уже с 1865 года. Объединение Германии фактически произошло только в 1871 году.
    • В преддверии Рождества Брюс Робертсон днем читает футбольные результаты в витрине магазина. Это происходит около 16 часов 45 минут, в такое время года на улице должно быть уже темно.

    -

    MediaInfo & log x264

    log x264

    x264 [info]: using SAR=1/1
    x264 [info]: using cpu capabilities: MMX2 SSE2Fast SSSE3 SSE4.2
    x264 [info]: profile High, level 4.1
    x264 [info]: frame I:1262 Avg QP:15.25 size: 87105
    x264 [info]: frame P:28290 Avg QP:18.47 size: 30665
    x264 [info]: frame B:110664 Avg QP:20.89 size: 10795
    x264 [info]: consecutive B-frames: 1.7% 3.4% 5.7% 14.3% 12.3% 48.2% 5.6% 2.7% 2.4% 1.1% 0.4% 0.5% 0.4% 0.4% 0.8%
    x264 [info]: mb I I16..4: 7.1% 72.3% 20.6%
    x264 [info]: mb P I16..4: 0.6% 9.4% 1.0% P16..4: 29.7% 33.9% 13.8% 1.9% 0.2% skip: 9.4%
    x264 [info]: mb B I16..4: 0.1% 1.6% 0.1% B16..8: 36.4% 19.3% 3.7% direct: 5.1% skip:33.8% L0:44.8% L1:45.3% BI: 9.9%
    x264 [info]: 8x8 transform intra:84.8% inter:60.6%
    x264 [info]: direct mvs spatial:97.6% temporal:2.4%
    x264 [info]: coded y,uvDC,uvAC intra: 89.4% 82.6% 51.7% inter: 29.3% 24.1% 1.7%
    x264 [info]: i16 v,h,dc,p: 43% 14% 10% 33%
    x264 [info]: i8 v,h,dc,ddl,ddr,vr,hd,vl,hu: 9% 7% 10% 10% 14% 13% 13% 12% 12%
    x264 [info]: i4 v,h,dc,ddl,ddr,vr,hd,vl,hu: 14% 8% 8% 8% 14% 14% 12% 11% 11%
    x264 [info]: i8c dc,h,v,p: 35% 24% 20% 20%
    x264 [info]: Weighted P-Frames: Y:1.9% UV:0.7%
    x264 [info]: ref P L0: 42.9% 9.9% 20.1% 6.8% 6.2% 4.1% 4.1% 2.1% 2.1% 1.6% 0.2% 0.0%
    x264 [info]: ref B L0: 70.3% 13.1% 6.3% 3.3% 2.3% 2.1% 1.5% 0.8% 0.2%
    x264 [info]: ref B L1: 92.3% 7.7%
    x264 [info]: kb/s:2974.31
    General
    Unique ID                   : 181549980996931178148991471421392918981 (0x88954125A23010E094EB8618E92399C5)
    Complete name               : D:\torrent\LastKnights\Filth.(2013).HDRip-AVC_R.G.All_Films.mkv
    Format                      : Matroska
    Format version              : Version 4 / Version 2
    File size                   : 2.90 GiB
    Duration                    : 1h 37mn
    Overall bit rate            : 4 258 Kbps
    Movie name                  : Грязь / Filth (2013) BDRip-AVC by andre90
    Encoded date                : UTC 2015-09-15 12:05:32
    Writing application         : mkvmerge v7.9.0 ('Birds') 64bit
    Writing library             : libebml v1.3.1 + libmatroska v1.4.2
    Attachements                : cover.png
    DURATION                    : 01:37:22.560000000
    NUMBER_OF_FRAMES            : 182580
    NUMBER_OF_BYTES             : 327183360
    _STATISTICS_WRITING_APP     : mkvmerge v7.9.0 ('Birds') 64bit
    _STATISTICS_WRITING_DATE_UT : 2015-09-15 12:05:32
    _STATISTICS_TAGS            : BPS DURATION NUMBER_OF_FRAMES NUMBER_OF_BYTES
    Video
    ID                          : 1
    Format                      : AVC
    Format/Info                 : Advanced Video Codec
    Format profile              : High@L4.1
    Format settings, CABAC      : Yes
    Format settings, ReFrames   : 10 frames
    Codec ID                    : V_MPEG4/ISO/AVC
    Duration                    : 1h 37mn
    Bit rate                    : 2 978 Kbps
    Width                       : 1 120 pixels
    Height                      : 476 pixels
    Display aspect ratio        : 2.35:1
    Frame rate mode             : Constant
    Frame rate                  : 24.000 fps
    Color space                 : YUV
    Chroma subsampling          : 4:2:0
    Bit depth                   : 8 bits
    Scan type                   : Progressive
    Bits/(Pixel*Frame)          : 0.233
    Stream size                 : 1.97 GiB (68%)
    Writing library             : x264 core 146 r2538 121396c
    Encoding settings           : cabac=1 / ref=10 / deblock=1:1:-1 / analyse=0x3:0x133 / me=esa / subme=11 / psy=1 / psy_rd=0.91:0.00 / mixed_ref=1 / me_range=48 / chroma_me=1 / trellis=2 / 8x8dct=1 / cqm=0 / deadzone=21,11 / fast_pskip=0 / chroma_qp_offset=-2 / threads=6 / lookahead_threads=1 / sliced_threads=0 / nr=0 / decimate=1 / interlaced=0 / bluray_compat=0 / constrained_intra=0 / bframes=14 / b_pyramid=2 / b_adapt=2 / b_bias=0 / direct=3 / weightb=1 / open_gop=0 / weightp=2 / keyint=240 / keyint_min=24 / scenecut=40 / intra_refresh=0 / rc_lookahead=40 / rc=2pass / mbtree=1 / bitrate=2978 / ratetol=1.0 / qcomp=0.60 / qpmin=0 / qpmax=69 / qpstep=4 / cplxblur=20.0 / qblur=0.5 / vbv_maxrate=50000 / vbv_bufsize=62500 / nal_hrd=none / filler=0 / ip_ratio=1.40 / aq=2:1.00
    Default                     : Yes
    Forced                      : No
    Audio #1
    ID                          : 2
    Format                      : AC-3
    Format/Info                 : Audio Coding 3
    Mode extension              : CM (complete main)
    Format settings, Endianness : Big
    Codec ID                    : A_AC3
    Duration                    : 1h 37mn
    Bit rate mode               : Constant
    Bit rate                    : 384 Kbps
    Channel(s)                  : 6 channels
    Channel positions           : Front: L C R, Side: L R, LFE
    Sampling rate               : 48.0 KHz
    Compression mode            : Lossy
    Stream size                 : 267 MiB (9%)
    Title                       : AVO, Goblin
    Language                    : Russian
    Default                     : Yes
    Forced                      : No
    Audio #2
    ID                          : 3
    Format                      : AC-3
    Format/Info                 : Audio Coding 3
    Mode extension              : CM (complete main)
    Format settings, Endianness : Big
    Codec ID                    : A_AC3
    Duration                    : 1h 37mn
    Bit rate mode               : Constant
    Bit rate                    : 448 Kbps
    Channel(s)                  : 6 channels
    Channel positions           : Front: L C R, Side: L R, LFE
    Sampling rate               : 48.0 KHz
    Compression mode            : Lossy
    Stream size                 : 312 MiB (11%)
    Title                       : AVO, Serbin
    Language                    : Russian
    Default                     : No
    Forced                      : No
    Audio #3
    ID                          : 4
    Format                      : AC-3
    Format/Info                 : Audio Coding 3
    Mode extension              : CM (complete main)
    Format settings, Endianness : Big
    Codec ID                    : A_AC3
    Duration                    : 1h 37mn
    Bit rate mode               : Constant
    Bit rate                    : 448 Kbps
    Channel(s)                  : 6 channels
    Channel positions           : Front: L C R, Side: L R, LFE
    Sampling rate               : 48.0 KHz
    Compression mode            : Lossy
    Stream size                 : 312 MiB (11%)
    Language                    : English
    Default                     : No
    Forced                      : No
    Text #1
    ID                          : 5
    Format                      : UTF-8
    Codec ID                    : S_TEXT/UTF8
    Codec ID/Info               : UTF-8 Plain Text
    Title                       : #1
    Language                    : Russian
    Default                     : No
    Forced                      : No
    Text #2
    ID                          : 6
    Format                      : UTF-8
    Codec ID                    : S_TEXT/UTF8
    Codec ID/Info               : UTF-8 Plain Text
    Title                       : #2
    Language                    : Russian
    Default                     : No
    Forced                      : No
    Text #3
    ID                          : 7
    Format                      : UTF-8
    Codec ID                    : S_TEXT/UTF8
    Codec ID/Info               : UTF-8 Plain Text
    Title                       : SDH
    Language                    : English
    Default                     : No
    Forced                      : No
    Text #4
    ID                          : 8
    Format                      : UTF-8
    Codec ID                    : S_TEXT/UTF8
    Codec ID/Info               : UTF-8 Plain Text
    Title                       : SDH-Colored
    Language                    : English
    Default                     : No
    Forced                      : No
    Menu
    00:00:00.000                : en:00:00:00.000
    00:08:15.500                : en:00:08:15.500
    00:15:56.792                : en:00:15:56.792
    00:24:38.667                : en:00:24:38.667
    00:32:36.125                : en:00:32:36.125
    00:40:55.917                : en:00:40:55.917
    00:48:00.458                : en:00:48:00.458
    00:56:09.000                : en:00:56:09.000
    01:03:43.833                : en:01:03:43.833
    01:14:07.708                : en:01:14:07.708
    01:19:14.958                : en:01:19:14.958
    01:28:19.167                : en:01:28:19.167

    Скриншоты




    Скачать .torrent

    Скачать торрент-файл бесплатно и на максимальной скорости!

    Как скачивать? · Что такое торрент? · Рейтинг и ограничения

    !ВНИМАНИЕ!
    Сайт не распространяет и не хранит электронные версии произведений, а занимается лишь лишь предоставлением доступа к создаваемому пользователями каталогу ссылок на торрент-файлы, которые содержат только списки хеш-сумм, убедительная просьба с жалобами обращаться напрямую к пользователю. Файлы для обмена на трекере предоставлены пользователями сайта, и администрация не несёт ответственности за их содержание. Просьба не заливать файлы, защищенные авторскими правами, а также файлы нелегального содержания!


    _________________
    [Профиль] [ЛС]
    Показать сообщения:    
    Ответить на тему

    Текущее время: Сегодня, в 00:21

    Часовой пояс: GMT + 2



    Вы не можете начинать темы
    Вы не можете отвечать на сообщения
    Вы не можете редактировать свои сообщения
    Вы не можете удалять свои сообщения
    Вы не можете голосовать в опросах
    Вы не можете прикреплять файлы к сообщениям
    Вы не можете скачивать файлы