BitTorrentTracker PerecTracker.org
BitTorrentTracker PerecTracker.org
    
Регистрация  ·  Вход
 
 · 
Забыли пароль?

  • Дружинники / The Watch (Акива Шаффер / Akiva Schaffer) [2012, США, фантастика, комедия, HDTVRip] [Open Matte] MVO (1 канал)

    Ответить на тему
     
    Автор Сообщение

    Light

    Создавать темы 16-Сен-2015 17:00

           

    [Цитировать]

    Дружинники / The Watch / Open Matte
    Страна: США
    Жанр: фантастика, комедия
    Год выпуска: 2012
    Продолжительность: 01:33:41
    Перевод: Профессиональный (многоголосый закадровый) 1 канал
    Cубтитры: нет
    Оригинальная аудиодорожка: нет
    Режиссер: Акива Шаффер / Akiva Schaffer
    В ролях: Бен Стиллер, Винс Вон, Джона Хилл, Ричард Айоаде, Розмари ДеУитт, Уилл Форте, Эрин Мориарти, Николас Браун, Р. Ли Эрми, Билли Крудап.
    Описание: Несколько соседей из довольно тихого маленького местечка, решили организовать бригаду дружинников, для поддержания правопорядка в родном районе и патрулирования местности. На самом деле мужчины просто придумали для себя идеальный способ, хоть изредка сбегать из дома, чтобы не сидеть в кругу семьи, а проводить время в веселых кутежах в своей компании. Долгое время все шло просто отлично, жены думали, что их мужья отличные ребята и заботятся о их безопасности, а те вселились на полную катушку. Однако совершенно случайно дозорные узнали, что готовится коварный заговор, основная цель которого уничтожение мира.
    Доп. информация: Рип с канала Первый HD. Из видеоряда удален логотип канала, остались послерекламные вставки с названием фильма. HDTV имеет иное наполнение кадра чем BD http://screenshotcomparison.com/comparison/143041
    Сэмпл: http://multi-up.com/1066689
    Качество видео: HDTVRip
    Формат видео: AVI
    Видео: MPEG4, XviD, 720x400 (16:9), 25.000 fps, 1 891 Kbps (0.263 bit/pixel)
    Аудио: AC-3, 48.0 KHz, 2 ch, 192 Kbps, CBR

    MediaInfo

    Общее
    Полное имя : K:\Дружинники.avi
    Формат : AVI
    Формат/Информация : Audio Video Interleave
    Размер файла : 1,37 Гбайт
    Продолжительность : 1 ч. 33 м.
    Общий поток : 2093 Кбит/сек
    Название фильма : Дружинники / The Watch (2012)
    Программа кодирования : VirtualDubMod 1.5.10.2 (build 2540/release)
    Библиотека кодирования : VirtualDubMod build 2540/release
    Авторское право : miha2154
    Видео
    Идентификатор : 0
    Формат : MPEG-4 Visual
    Профиль формата : Advanced Simple@L5
    Параметр BVOP формата : 1
    Параметр QPel формата : Нет
    Параметр GMC формата : Без точки перехода
    Параметр матрицы формата : Выборочная
    Идентификатор кодека : XVID
    Идентификатор кодека/Подсказка : XviD
    Продолжительность : 1 ч. 33 м.
    Битрейт : 1891 Кбит/сек
    Ширина : 720 пикселей
    Высота : 400 пикселей
    Соотношение сторон : 16:9
    Частота кадров : 25,000 кадров/сек
    Цветовое пространство : YUV
    Субдискретизация насыщенности : 4:2:0
    Битовая глубина : 8 бит
    Тип развёртки : Прогрессивная
    Метод сжатия : С потерями
    Бит/(Пиксели*Кадры) : 0.263
    Размер потока : 1,24 Гбайт (90%)
    Библиотека кодирования : XviD 65
    Аудио
    Идентификатор : 1
    Формат : AC-3
    Формат/Информация : Audio Coding 3
    Расширение режима : CM (complete main)
    Параметр Endianness формата : Big
    Идентификатор кодека : 2000
    Продолжительность : 1 ч. 33 м.
    Вид битрейта : Постоянный
    Битрейт : 192 Кбит/сек
    Каналы : 2 канала
    Расположение каналов : Front: L R
    Частота : 48,0 КГц
    Метод сжатия : С потерями
    Размер потока : 129 Мбайт (9%)
    Выравнивание : Разделение по промежуткам
    Продолжительность промежутка : 40 мс. (1,00 видеокадр)
    Время предзагрузки промежутка : 500 мс.
    Заголовок : Профессиональный (многоголосый закадровый) 1 канал

    Скриншоты


    Скачать .torrent

    Скачать торрент-файл бесплатно и на максимальной скорости!

    Как скачивать? · Что такое торрент? · Рейтинг и ограничения

    !ВНИМАНИЕ!
    Сайт не распространяет и не хранит электронные версии произведений, а занимается лишь лишь предоставлением доступа к создаваемому пользователями каталогу ссылок на торрент-файлы, которые содержат только списки хеш-сумм, убедительная просьба с жалобами обращаться напрямую к пользователю. Файлы для обмена на трекере предоставлены пользователями сайта, и администрация не несёт ответственности за их содержание. Просьба не заливать файлы, защищенные авторскими правами, а также файлы нелегального содержания!


    _________________
    [Профиль] [ЛС]
    Показать сообщения:    
    Ответить на тему

    Текущее время: Сегодня, в 17:51

    Часовой пояс: GMT + 2



    Вы не можете начинать темы
    Вы не можете отвечать на сообщения
    Вы не можете редактировать свои сообщения
    Вы не можете удалять свои сообщения
    Вы не можете голосовать в опросах
    Вы не можете прикреплять файлы к сообщениям
    Вы не можете скачивать файлы