BitTorrentTracker PerecTracker.org
BitTorrentTracker PerecTracker.org
    
Регистрация  ·  Вход
 
 · 
Забыли пароль?

  • 13 грехов / 13 Sins (Даниэль Штамм / Daniel Stamm) [2014, США, триллер, ужасы, BDRip-AVC] Dub + sub (rus, eng) + original eng

    Ответить на тему
     
    Автор Сообщение

    Light

    Создавать темы 16-Сен-2015 12:48

           

    [Цитировать]

    -13 грехов / 13 SinsСтрана: США
    Жанр: триллер
    Год выпуска: 2014
    Продолжительность: 01:32:31-Перевод: Профессиональный (дублированный) (TK "NTV+)
    Cубтитры: русские, английские
    Оригинальная аудиодорожка: английский-Режиссер: Даниэль Штамм / Daniel Stamm-В ролях-Марк Веббер, Рутина Уэсли, Девон Грайе, Прюитт Тэйлор Винс, Том Бауэр, Рон Перлман, Клайд Джонс, Денин Тайлер, Грег Пирсон, Ричи Монтгомери-Описание-Эллиот Бриндл — умный кроткий сотрудник службы социального обеспечения, тонущий в долгах. Но все меняется, когда раздается телефонный звонок. На том конце провода ему сообщают, что он становится участником тв-шоу, условия простые — выполнить 13 заданий, какими бы странными они не были; приз — деньги, которые копятся с каждым выполненным заданием. Отказ от выполнения или провал задания ведет к обнулению банка. Деньги можно забрать только выполнив все 13 заданий ведущего. Эллиот следует первым инструкциям и с легкостью съедает пойманную муху. На счету Бриндла появляются первые легкие деньги. Эллиот хочет, но не может прекратить игру, чтобы не потерять «заработанное», хотя задачи становятся более изощренными и опасными, а точка невозврата вот-вот будет пройдена.-Качество видео: BDRip
    Исходное видео: Blu-ray disc__[13_SINS_BLUEBIRD]-Контейнер: MKV-Видео: AVC, 1106х462 (2,40:1), ~2700 kbps, 23.976 fps
    Аудио: AC-3, 448 kbps, Dolby Digital, 3/2 (L,C,R,l,r) + LFE ch, 48 KHz |Dub|
    Аудио: AC-3, 448 kbps, Dolby Digital, 3/2 (L,C,R,l,r) + LFE ch, 48 KHz |Original|
    Формат субтитров: softsub (SRT)--

    MediaInfo

    x264

    VIDEO ENCODING
    ------------------------------
    Encoding video to: J:\Temp\0125.264
    x264 Q17.3 1106x462 23.976fps (132840 frames)
    avs4x26x.exe: -L x264_64.exe --crf 17.3 --preset veryslow --profile high --level 4.1 --ref 14 --aq-mode 3 --aq-strength 0.75 --deblock -3:-2 --merange 32 --bframes 16 --direct spatial --no-dct-decimate --subme 11 --no-mbtree --keyint 240 --colorprim bt709 --transfer bt709 --colormatrix bt709 --vbv-bufsize 62500 --vbv-maxrate 50000 --partitions p8x8,b8x8,i4x4,i8x8 --sar 1:1 --output "J:\Temp\0125.264" "J:\Temp\0125.avs"
    raw [info]: 1106x462p 1:1 @ 24000/1001 fps (cfr)
    x264 [info]: using SAR=1/1
    x264 [info]: using cpu capabilities: MMX2 SSE2Fast LZCNT
    x264 [info]: profile High, level 4.1
    x264 [info]: frame I:1080 Avg QP:14.62 size: 71919
    x264 [info]: frame P:26010 Avg QP:16.74 size: 31802
    x264 [info]: frame B:105750 Avg QP:18.88 size: 9560
    x264 [info]: consecutive B-frames: 1.6% 1.4% 6.4% 11.9% 18.7% 44.3% 6.9% 2.5% 1.5% 1.2% 0.7% 1.5% 0.6% 0.4% 0.1% 0.0% 0.2%
    x264 [info]: mb I I16..4: 6.5% 76.5% 17.0%
    x264 [info]: mb P I16..4: 0.8% 13.6% 1.4% P16..4: 29.9% 35.2% 13.9% 0.0% 0.0% skip: 5.1%
    x264 [info]: mb B I16..4: 0.1% 1.1% 0.2% B16..8: 35.9% 21.6% 4.3% direct: 5.2% skip:31.6% L0:44.8% L1:43.9% BI:11.4%
    x264 [info]: 8x8 transform intra:82.3% inter:56.2%
    x264 [info]: coded y,uvDC,uvAC intra: 88.9% 87.9% 74.7% inter: 27.0% 22.8% 12.1%
    x264 [info]: i16 v,h,dc,p: 34% 19% 6% 41%
    x264 [info]: i8 v,h,dc,ddl,ddr,vr,hd,vl,hu: 9% 9% 11% 9% 13% 13% 12% 11% 12%
    x264 [info]: i4 v,h,dc,ddl,ddr,vr,hd,vl,hu: 12% 23% 7% 7% 12% 11% 11% 8% 10%
    x264 [info]: i8c dc,h,v,p: 48% 21% 15% 15%
    x264 [info]: Weighted P-Frames: Y:4.1% UV:2.1%
    x264 [info]: ref P L0: 42.5% 9.3% 17.8% 6.5% 6.0% 3.8% 3.8% 1.9% 2.0% 1.4% 1.5% 1.1% 1.2% 1.0% 0.1% 0.0%
    x264 [info]: ref B L0: 70.7% 11.3% 5.5% 3.3% 2.2% 1.9% 1.4% 1.0% 0.8% 0.7% 0.6% 0.4% 0.2%
    x264 [info]: ref B L1: 93.6% 6.4%
    x264 [info]: kb/s:2766.21
    Полное имя : J:\Раздачи\13_Sins_2014_BDRip_RGTru[cw].mkv
    Формат : Matroska
    Версия формата : Version 2
    Размер файла : 2,36 Гбайт
    Продолжительность : 1 ч. 32 м.
    Общий поток : 3664 Кбит/сек
    Название фильма : 13 грехов / 13 Sins (2014) [RGTru]
    Дата кодирования : UTC 2015-09-15 16:36:40
    Программа кодирования : mkvmerge v7.8.0 ('River Man') 32bit built on Apr 3 2015 12:11:22
    Библиотека кодирования : libebml v1.3.1 + libmatroska v1.4.2
    Видео
    Идентификатор : 1
    Формат : AVC
    Формат/Информация : Advanced Video Codec
    Профиль формата : High@L4.1
    Параметр CABAC формата : Да
    Параметр ReFrames формата : 14 кадров
    Идентификатор кодека : V_MPEG4/ISO/AVC
    Продолжительность : 1 ч. 32 м.
    Битрейт : 2695 Кбит/сек
    Ширина : 1106 пикселей
    Высота : 462 пикселя
    Соотношение сторон : 2,40:1
    Режим частоты кадров : Постоянный
    Частота кадров : 23,976 кадра/сек
    Цветовое пространство : YUV
    Субдискретизация насыщенности : 4:2:0
    Битовая глубина : 8 бит
    Тип развёртки : Прогрессивная
    Бит/(Пиксели*Кадры) : 0.220
    Размер потока : 1,74 Гбайт (74%)
    Заголовок : 13_Sins_2014_BDRip_RGTru[cw]
    Библиотека кодирования : x264 core 146 r2538 121396c
    Настройки программы : cabac=1 / ref=14 / deblock=1:-3:-2 / analyse=0x3:0x113 / me=umh / subme=11 / psy=1 / psy_rd=1.00:0.00 / mixed_ref=1 / me_range=32 / chroma_me=1 / trellis=2 / 8x8dct=1 / cqm=0 / deadzone=21,11 / fast_pskip=1 / chroma_qp_offset=-2 / threads=4 / lookahead_threads=1 / sliced_threads=0 / nr=0 / decimate=0 / interlaced=0 / bluray_compat=0 / constrained_intra=0 / bframes=16 / b_pyramid=2 / b_adapt=2 / b_bias=0 / direct=1 / weightb=1 / open_gop=0 / weightp=2 / keyint=240 / keyint_min=23 / scenecut=40 / intra_refresh=0 / rc_lookahead=60 / rc=crf / mbtree=0 / crf=17.3 / qcomp=0.60 / qpmin=0 / qpmax=69 / qpstep=4 / vbv_maxrate=50000 / vbv_bufsize=62500 / crf_max=0.0 / nal_hrd=none / filler=0 / ip_ratio=1.40 / pb_ratio=1.30 / aq=3:0.75
    Язык : English
    Default : Да
    Forced : Нет
    Цветовой диапазон : Limited
    Основные цвета : BT.709
    Характеристики трансфера : BT.709
    Коэффициенты матрицы : BT.709
    Аудио #1
    Идентификатор : 2
    Формат : AC-3
    Формат/Информация : Audio Coding 3
    Расширение режима : CM (complete main)
    Параметр Endianness формата : Big
    Идентификатор кодека : A_AC3
    Продолжительность : 1 ч. 32 м.
    Вид битрейта : Постоянный
    Битрейт : 448 Кбит/сек
    Каналы : 6 каналов
    Расположение каналов : Front: L C R, Side: L R, LFE
    Частота : 48,0 КГц
    Битовая глубина : 16 бит
    Метод сжатия : С потерями
    Размер потока : 296 Мбайт (12%)
    Заголовок : Dub
    Язык : Russian
    Default : Да
    Forced : Нет
    Аудио #2
    Идентификатор : 3
    Формат : AC-3
    Формат/Информация : Audio Coding 3
    Расширение режима : CM (complete main)
    Параметр Endianness формата : Big
    Идентификатор кодека : A_AC3
    Продолжительность : 1 ч. 32 м.
    Вид битрейта : Постоянный
    Битрейт : 448 Кбит/сек
    Каналы : 6 каналов
    Расположение каналов : Front: L C R, Side: L R, LFE
    Частота : 48,0 КГц
    Битовая глубина : 16 бит
    Метод сжатия : С потерями
    Размер потока : 296 Мбайт (12%)
    Заголовок : Original
    Язык : English
    Default : Нет
    Forced : Нет
    Текст #1
    Идентификатор : 4
    Формат : UTF-8
    Идентификатор кодека : S_TEXT/UTF8
    Идентификатор кодека/Информация : UTF-8 Plain Text
    Заголовок : lumez
    Язык : Russian
    Default : Нет
    Forced : Нет
    Текст #2
    Идентификатор : 5
    Формат : UTF-8
    Идентификатор кодека : S_TEXT/UTF8
    Идентификатор кодека/Информация : UTF-8 Plain Text
    Заголовок : SDH
    Язык : English
    Default : Нет
    Forced : Нет
    Меню
    00:00:00.000 : en:Chapter 01
    00:05:10.602 : en:Chapter 02
    00:10:52.610 : en:Chapter 03
    00:16:12.972 : en:Chapter 04
    00:23:14.685 : en:Chapter 05
    00:28:38.926 : en:Chapter 06
    00:35:55.528 : en:Chapter 07
    00:40:40.897 : en:Chapter 08
    00:48:50.177 : en:Chapter 09
    00:56:12.077 : en:Chapter 10
    01:03:46.823 : en:Chapter 11
    01:11:24.447 : en:Chapter 12
    01:15:58.262 : en:Chapter 13
    01:22:09.716 : en:Chapter 14
    01:28:21.296 : en:Chapter 15
    Скриншоты
    Сравнение с исходником
    Рип-- БД

    Скачать .torrent

    Скачать торрент-файл бесплатно и на максимальной скорости!

    Как скачивать? · Что такое торрент? · Рейтинг и ограничения

    !ВНИМАНИЕ!
    Сайт не распространяет и не хранит электронные версии произведений, а занимается лишь лишь предоставлением доступа к создаваемому пользователями каталогу ссылок на торрент-файлы, которые содержат только списки хеш-сумм, убедительная просьба с жалобами обращаться напрямую к пользователю. Файлы для обмена на трекере предоставлены пользователями сайта, и администрация не несёт ответственности за их содержание. Просьба не заливать файлы, защищенные авторскими правами, а также файлы нелегального содержания!


    _________________
    [Профиль] [ЛС]
    Показать сообщения:    
    Ответить на тему

    Текущее время: Сегодня, в 06:34

    Часовой пояс: GMT + 2



    Вы не можете начинать темы
    Вы не можете отвечать на сообщения
    Вы не можете редактировать свои сообщения
    Вы не можете удалять свои сообщения
    Вы не можете голосовать в опросах
    Вы не можете прикреплять файлы к сообщениям
    Вы не можете скачивать файлы