BitTorrentTracker PerecTracker.org
BitTorrentTracker PerecTracker.org
    
Регистрация  ·  Вход
 
 · 
Забыли пароль?

  • Сломанный свет (Вера Глаголева) [1990, Драма, притча, VHSRip] [Полная версия]

    Ответить на тему
     
    Автор Сообщение

    Light

    Создавать темы 16-Сен-2015 08:36

           

    [Цитировать]

    Сломанный свет
    [Полная версия]
    Жанр: Драма, притча
    Год выпуска: 1990
    Продолжительность: 01:11:51
    Режиссёр: Вера Глаголева
    В ролях: Вера Глаголева, Григорий Гладий, Александр Феклистов, Светлана Смирнова, Маргарита Терехова, Андрей Соколов, Игорь Золотовицкий, Сергей Курёхин, Фарух Рузиматов, Лариса Белогурова, Владимир Эренберг, Всеволод Гаккель, Николай Денисов, Николай Лавров, Варвара Шабалина, Александр Тураев (Терехов)
    Описание: Фильм посвящен судьбе творческих людей в СССР в конце 80-х годов. Одна из немногих лент, рассказывающих о первых признаках великой трагедии великой империи под названием "СССР"...
    Доп. информация: В прокат фильм не вышел - не решен вопрос с правами на фильм. Студия "Эдельвейс", где он был снят, распалась в начале 90-х годов, фильм никому не был продан, и владельцев ленты уже невозможно найти. Осталась единственная копия в собрании Госфильмофонда России.... (а также у аlenavova )
    Оцифровка VHS (личный архив) и получение VHSRip alenavova
    Релиз
    Сэмпл: https://yadi.sk/i/G-afxZTHiWoQz
    Качество видео: VHSRip
    Формат видео: AVI
    Видео: 704x528 (1.33:1), 25 fps, XviD build 50 ~1968 kbps avg, 0.21 bit/pixel
    Аудио: 48 kHz, AC3 Dolby Digital, 2/0 (L,R) ch, ~192 kbps

    MediaInfo

    Сломанный свет [by alenavova].avi
    Format : AVI
    Format/Info : Audio Video Interleave
    File size : 1.09 GiB
    Duration : 1h 11mn
    Overall bit rate : 2 170 Kbps
    Movie name : Сломанный свет [by alenavova]
    Director : by alenavova
    Writing application : VirtualDubMod 1.5.10.3 | www.virtualdub-fr.org || (build 2550/release)
    Copyright : Edich2
    Comment : RuTracker.org
    Video
    ID : 0
    Format : MPEG-4 Visual
    Format profile : Advanced Simple@L5
    Format settings, BVOP : 1
    Format settings, QPel : No
    Format settings, GMC : No warppoints
    Format settings, Matrix : Default (MPEG)
    Codec ID : XVID
    Codec ID/Hint : XviD
    Duration : 1h 11mn
    Bit rate : 1 969 Kbps
    Width : 704 pixels
    Height : 528 pixels
    Display aspect ratio : 4:3
    Frame rate : 25.000 fps
    Color space : YUV
    Chroma subsampling : 4:2:0
    Bit depth : 8 bits
    Scan type : Progressive
    Compression mode : Lossy
    Bits/(Pixel*Frame) : 0.212
    Stream size : 1 012 MiB (91%)
    Writing library : XviD 1.2.1 (UTC 2008-12-04)
    Audio
    ID : 1
    Format : AC-3
    Format/Info : Audio Coding 3
    Mode extension : CM (complete main)
    Format settings, Endianness : Big
    Codec ID : 2000
    Duration : 1h 11mn
    Bit rate mode : Constant
    Bit rate : 192 Kbps
    Channel(s) : 2 channels
    Channel positions : Front: L R
    Sampling rate : 48.0 KHz
    Bit depth : 16 bits
    Compression mode : Lossy
    Stream size : 98.7 MiB (9%)
    Alignment : Split accross interleaves
    Interleave, duration : 40 ms (1.00 video frame)
    Interleave, preload duration : 500 ms

    Скриншоты


    Скачать .torrent

    Скачать торрент-файл бесплатно и на максимальной скорости!

    Как скачивать? · Что такое торрент? · Рейтинг и ограничения

    !ВНИМАНИЕ!
    Сайт не распространяет и не хранит электронные версии произведений, а занимается лишь лишь предоставлением доступа к создаваемому пользователями каталогу ссылок на торрент-файлы, которые содержат только списки хеш-сумм, убедительная просьба с жалобами обращаться напрямую к пользователю. Файлы для обмена на трекере предоставлены пользователями сайта, и администрация не несёт ответственности за их содержание. Просьба не заливать файлы, защищенные авторскими правами, а также файлы нелегального содержания!


    _________________
    [Профиль] [ЛС]
    Показать сообщения:    
    Ответить на тему

    Текущее время: Сегодня, в 01:56

    Часовой пояс: GMT + 2



    Вы не можете начинать темы
    Вы не можете отвечать на сообщения
    Вы не можете редактировать свои сообщения
    Вы не можете удалять свои сообщения
    Вы не можете голосовать в опросах
    Вы не можете прикреплять файлы к сообщениям
    Вы не можете скачивать файлы