BitTorrentTracker PerecTracker.org
BitTorrentTracker PerecTracker.org
    
Регистрация  ·  Вход
 
 · 
Забыли пароль?

  • Игра (Александр Рогожкин) [2008, комедия, спорт, HDTVRip]

    Ответить на тему
     
    Автор Сообщение

    rechyn

    Создавать темы 15-Сен-2015 03:07

           

    [Цитировать]

    ИграСтрана: Россия
    Жанр: комедия, спорт
    Год выпуска: 2008
    Продолжительность: 01:32:36
    Режиссёр: Александр Рогожкин
    В ролях: Алексей Булдаков, Даниил Страхов, Юрий Степанов, Кирилл Пирогов, Александр Лымарев, Артур Ваха, Любовь Львова, Виктор Бабич, Артем Волобуев, Павел Горожанкин
    Описание: Действие фильма происходит на тренировочной базе российской сборной. К этому месту прикованы взгляды всей страны, здесь в оставшиеся считанные дни до матча тренируются наши игроки. Здесь же работают все те, кто помогает им выигрывать: тренеры, администраторы, врачи, сторожа и даже уборщицы. От этих людей зависит судьба решающего матча. Все они беззаветно преданы футболу.
    Но вот на базе начинают происходить странные, а порой и курьезные события. Кто-то хочет извлечь свою выгоду из происходящего, кто-то наоборот помочь. Главные герои стараются разобраться в происходящем. И тут начинается финальный матч. Все взгляды прикованы к экранам. Сумеют ли наши игроки посрамить соперников. Победят ли?
    Сэмпл: http://multi-up.com/1066460

    Качество видео: HDTVRip
    Формат видео: AVI
    Видео: 720x384 (1,85:1), 25 fps, XviD, ~2060 kbps
    Аудио : 48 kHz, AC3 Dolby Digital, 2 ch, ~192 kbps

    MediaInfo

    Общее
    Полное имя : C:\Documents and Settings\Roman\Мои документы\Игра.avi
    Формат : AVI
    Формат/Информация : Audio Video Interleave
    Размер файла : 1,46 Гбайт
    Продолжительность : 1 ч. 32 м.
    Общий поток : 2262 Кбит/сек
    Программа кодирования : VirtualDubMod 1.5.10.3 | www.virtualdub-fr.org || (build 2550/release)
    Библиотека кодирования : VirtualDubMod build 2550/release
    Видео
    Идентификатор : 0
    Формат : MPEG-4 Visual
    Профиль формата : Advanced Simple@L5
    Параметр BVOP формата : 1
    Параметр QPel формата : Нет
    Параметр GMC формата : Без точки перехода
    Параметр матрицы формата : Default (MPEG)
    Идентификатор кодека : XVID
    Идентификатор кодека/Подсказка : XviD
    Продолжительность : 1 ч. 32 м.
    Битрейт : 2060 Кбит/сек
    Ширина : 720 пикселей
    Высота : 384 пикселя
    Соотношение сторон : 1,85:1
    Частота кадров : 25,000 кадров/сек
    Цветовое пространство : YUV
    Субдискретизация насыщенности : 4:2:0
    Битовая глубина : 8 бит
    Тип развёртки : Прогрессивная
    Метод сжатия : С потерями
    Бит/(Пиксели*Кадры) : 0.298
    Размер потока : 1,33 Гбайт (91%)
    Библиотека кодирования : XviD 1.2.1 (UTC 2008-12-04)
    Аудио
    Идентификатор : 1
    Формат : AC-3
    Формат/Информация : Audio Coding 3
    Расширение режима : CM (complete main)
    Параметр Endianness формата : Big
    Идентификатор кодека : 2000
    Продолжительность : 1 ч. 32 м.
    Вид битрейта : Постоянный
    Битрейт : 192 Кбит/сек
    Каналы : 2 канала
    Расположение каналов : Front: L R
    Частота : 48,0 КГц
    Битовая глубина : 16 бит
    Метод сжатия : С потерями
    Размер потока : 127 Мбайт (8%)
    Выравнивание : Разделение по промежуткам
    Продолжительность промежутка : 40 мс. (1,00 видеокадр)
    Время предзагрузки промежутка : 500 мс.

    Скриншот c названием фильма

    Скриншоты

    Скачать .torrent

    Скачать торрент-файл бесплатно и на максимальной скорости!

    Как скачивать? · Что такое торрент? · Рейтинг и ограничения

    !ВНИМАНИЕ!
    Сайт не распространяет и не хранит электронные версии произведений, а занимается лишь лишь предоставлением доступа к создаваемому пользователями каталогу ссылок на торрент-файлы, которые содержат только списки хеш-сумм, убедительная просьба с жалобами обращаться напрямую к пользователю. Файлы для обмена на трекере предоставлены пользователями сайта, и администрация не несёт ответственности за их содержание. Просьба не заливать файлы, защищенные авторскими правами, а также файлы нелегального содержания!


    _________________
    [Профиль] [ЛС]
    Показать сообщения:    
    Ответить на тему

    Текущее время: Сегодня, в 11:50

    Часовой пояс: GMT + 2



    Вы не можете начинать темы
    Вы не можете отвечать на сообщения
    Вы не можете редактировать свои сообщения
    Вы не можете удалять свои сообщения
    Вы не можете голосовать в опросах
    Вы не можете прикреплять файлы к сообщениям
    Вы не можете скачивать файлы