BitTorrentTracker PerecTracker.org
BitTorrentTracker PerecTracker.org
    
Регистрация  ·  Вход
 
 · 
Забыли пароль?

  • Лицо любви / The Face of Love (Арье Позин / Arie Posin) [2013, США, драма, мелодрама, BDRip 720p] Original (Eng) + Sub (Rus, Eng)

    Ответить на тему
     
    Автор Сообщение

    Flirldrerve

    Создавать темы 14-Сен-2015 14:31

           

    [Цитировать]

    Лицо любви / The Face of Love
    Страна: США
    Жанр: драма, мелодрама
    Год выпуска: 2013
    Продолжительность: 01:32:13-Перевод: Субтитры
    Cубтитры: русские, английские
    Оригинальная аудиодорожка: английская-Режиссер: Арье Позин / Arie Posin-В ролях: Эд Харрис, Аннетт Бенинг, Робин Уильямс, Джесс Вейкслер, Линда Пак, Джефф Парис, Эми Бреннеман, Клайд Кусацу, Эли Варгас и др.-Описание: Спустя пять лет после смерти ее любимого мужа Гаррета, Никки встречает человека, который кажется его точной копией. Мало того, что встреченный героиней незнакомец наделен таким же лицом и поразительно голубыми глазами, как у ее супруга, он также столь же добр, как покойный Гаррет, имеет превосходное чувство юмора и страсть к искусству. И все же он чужой.-Сэмпл: http://multi-up.com/1066274-Качество видео: BDRip 720p
    Формат видео: MKV-Видео: MPEG-4 AVC 1280x694 1,85:1 23,976 fps 5005 Кбит/с
    Аудио: AC3 48000Hz 6ch 448kbps
    Формат субтитров: softsub (SRT)

    MediaInfo

    Общее
    Уникальный идентификатор : 184727270771571777714569903206927857557 (0x8AF92DA0A34DBF92AFC2C9FE60D27795)
    Полное имя : C:\Лицо любви (2013) 720p rus sub.mkv
    Формат : Matroska
    Версия формата : Version 2
    Размер файла : 3,58 Гбайт
    Продолжительность : 1 ч. 32 м.
    Общий поток : 5563 Кбит/сек
    Дата кодирования : UTC 2015-09-13 12:36:13
    Программа кодирования : mkvmerge v4.0.0 ('The Stars were mine') сборка от Jun 6 2010 16:18:42
    Библиотека кодирования : libebml v1.0.0 + libmatroska v1.0.0
    Видео
    Идентификатор : 1
    Формат : AVC
    Формат/Информация : Advanced Video Codec
    Профиль формата : High@L4.1
    Параметр CABAC формата : Да
    Параметр ReFrames формата : 9 кадров
    Идентификатор кодека : V_MPEG4/ISO/AVC
    Продолжительность : 1 ч. 32 м.
    Битрейт : 5005 Кбит/сек
    Ширина : 1280 пикселей
    Высота : 694 пикселя
    Соотношение сторон : 1,85:1
    Режим частоты кадров : Постоянный
    Частота кадров : 23,976 кадра/сек
    Цветовое пространство : YUV
    Субдискретизация насыщенности : 4:2:0
    Битовая глубина : 8 бит
    Тип развёртки : Прогрессивная
    Бит/(Пиксели*Кадры) : 0.235
    Размер потока : 3,22 Гбайт (90%)
    Библиотека кодирования : x264 core 142 r2409+42 04be48a tMod [8-bit@all X86_64]
    Настройки программы : cabac=1 / ref=9 / deblock=1:-3:-3 / analyse=0x3:0x133 / me=tesa / subme=10 / psy=1 / fade_compensate=0.00 / psy_rd=0.90:0.00 / mixed_ref=1 / me_range=32 / chroma_me=1 / trellis=2 / 8x8dct=1 / cqm=0 / deadzone=21,11 / fast_pskip=0 / chroma_qp_offset=-2 / threads=12 / lookahead_threads=2 / sliced_threads=0 / nr=0 / decimate=1 / interlaced=0 / bluray_compat=0 / constrained_intra=0 / fgo=0 / bframes=7 / b_pyramid=2 / b_adapt=2 / b_bias=0 / direct=3 / weightb=1 / open_gop=0 / weightp=2 / keyint=241 / keyint_min=23 / scenecut=40 / intra_refresh=0 / rc_lookahead=60 / rc=crf / mbtree=0 / crf=16.3000 / qcomp=0.60 / qpmin=0:0:0 / qpmax=69:69:69 / qpstep=4 / vbv_maxrate=50000 / vbv_bufsize=62500 / crf_max=0.0 / nal_hrd=none / filler=0 / ip_ratio=1.40 / pb_ratio=1.30 / aq=4:0.90 / aq-sensitivity=10.00 / aq-factor=1.00:1.00:1.00 / aq2=0 / aq3=0 / zones=125600,132652,q=26
    Язык : English
    Default : Нет
    Forced : Да
    Аудио
    Идентификатор : 2
    Формат : AC-3
    Формат/Информация : Audio Coding 3
    Расширение режима : CM (complete main)
    Параметр Endianness формата : Big
    Идентификатор кодека : A_AC3
    Продолжительность : 1 ч. 32 м.
    Вид битрейта : Постоянный
    Битрейт : 448 Кбит/сек
    Каналы : 6 каналов
    Расположение каналов : Front: L C R, Side: L R, LFE
    Частота : 48,0 КГц
    Битовая глубина : 16 бит
    Метод сжатия : С потерями
    Размер потока : 295 Мбайт (8%)
    Язык : English
    Default : Да
    Forced : Нет
    Текст #1
    Идентификатор : 3
    Формат : UTF-8
    Идентификатор кодека : S_TEXT/UTF8
    Идентификатор кодека/Информация : UTF-8 Plain Text
    Язык : Russian
    Default : Да
    Forced : Нет
    Текст #2
    Идентификатор : 4
    Формат : UTF-8
    Идентификатор кодека : S_TEXT/UTF8
    Идентификатор кодека/Информация : UTF-8 Plain Text
    Язык : English
    Default : Нет
    Forced : Нет
    Меню
    00:00:00.000 : :00:00:00.000
    00:05:34.459 : :00:05:34.459
    00:11:25.393 : :00:11:25.393
    00:17:09.904 : :00:17:09.904
    00:23:00.921 : :00:23:00.921
    00:27:44.162 : :00:27:44.162
    00:34:23.770 : :00:34:23.770
    00:40:12.702 : :00:40:12.702
    00:45:59.548 : :00:45:59.548
    00:51:29.628 : :00:51:29.628
    00:58:28.797 : :00:58:28.797
    01:03:22.215 : :01:03:22.215
    01:09:37.340 : :01:09:37.340
    01:14:53.906 : :01:14:53.906
    01:22:50.507 : :01:22:50.507
    01:27:06.847 : :01:27:06.847

    Скриншоты

    Скачать .torrent

    Скачать торрент-файл бесплатно и на максимальной скорости!

    Как скачивать? · Что такое торрент? · Рейтинг и ограничения

    !ВНИМАНИЕ!
    Сайт не распространяет и не хранит электронные версии произведений, а занимается лишь лишь предоставлением доступа к создаваемому пользователями каталогу ссылок на торрент-файлы, которые содержат только списки хеш-сумм, убедительная просьба с жалобами обращаться напрямую к пользователю. Файлы для обмена на трекере предоставлены пользователями сайта, и администрация не несёт ответственности за их содержание. Просьба не заливать файлы, защищенные авторскими правами, а также файлы нелегального содержания!


    _________________
    [Профиль] [ЛС]
    Показать сообщения:    
    Ответить на тему

    Текущее время: Сегодня, в 15:41

    Часовой пояс: GMT + 2



    Вы не можете начинать темы
    Вы не можете отвечать на сообщения
    Вы не можете редактировать свои сообщения
    Вы не можете удалять свои сообщения
    Вы не можете голосовать в опросах
    Вы не можете прикреплять файлы к сообщениям
    Вы не можете скачивать файлы