BitTorrentTracker PerecTracker.org
BitTorrentTracker PerecTracker.org
    
Регистрация  ·  Вход
 
 · 
Забыли пароль?

  • Пираты Эгейского моря / God loves caviar (Яннис Смарагдис / Yannis Smaragdis ) [2015, Греция, Россия, приключения, биография, история, HDRip] MVO

    Ответить на тему
     
    Автор Сообщение

    rechyn

    Создавать темы 14-Сен-2015 10:19

           

    [Цитировать]

    Пираты Эгейского моря / God loves caviar
    Страна: Греция, Россия
    Жанр: приключения, биография, история
    Год выпуска: 2015
    Продолжительность: 01:41:55
    Перевод: Профессиональный (многоголосый закадровый) [Лицензия]
    Cубтитры: нет
    Оригинальная аудиодорожка: нет
    Режиссер: Яннис Смарагдис / Yannis Smaragdis
    В ролях: Себастьян Кох, Евгений Стычкин, Хуан Диего Ботто, Ольга Сутулова, Джон Клиз, Катрин Денёв, Акис Сакеллариу, Александра Сакеларопулу, Фотини Баксевани, Лакис Лазопулос
    Описание: Фильм о реальных событиях, в центре которых находится Иоаннис Варвакис — один из самых великих иностранцев в российской истории. После обращения к «великой нации светловолосых» за помощью в освобождении своего народа от турецкого ига жизнь греческого рыбака меняется самым невероятным образом: полюбившись графу Орлову и Екатерине Великой, он обретает вторую родину, с головой погружается в культуру нашей страны, становится одним из самых богатых людей Европы и главных благотворителей российской империи, научившись добывать и экспортировать икру.
    Сэмпл: http://multi-up.com/1066338
    Качество видео: HDRip
    Формат видео: AVI
    Видео: 720 x 384 (1.85:1), XviD, 24.000 fps, ~ 1718 Kbps
    Аудио: AC3, 48 kHz, 2 ch, 192 kbps

    MediaInfo

    General
    Complete name : D:\Torrent\Pirati.Egeyskogo.morya.2015.P.HDRip.1400Mb.avi
    Format : AVI
    Format/Info : Audio Video Interleave
    File size : 1.37 GiB
    Duration : 1h 41mn
    Overall bit rate : 1 919 Kbps
    Writing application : VirtualDubMod 1.5.10.3 | www.virtualdub-fr.org || (build 2550/release)
    Writing library : VirtualDubMod build 2550/release
    Video
    ID : 0
    Format : MPEG-4 Visual
    Format profile : Advanced Simple@L5
    Format settings, BVOP : 2
    Format settings, QPel : No
    Format settings, GMC : No warppoints
    Format settings, Matrix : Default (MPEG)
    Codec ID : XVID
    Codec ID/Hint : XviD
    Duration : 1h 41mn
    Bit rate : 1 718 Kbps
    Width : 720 pixels
    Height : 384 pixels
    Display aspect ratio : 1.85:1
    Frame rate : 24.000 fps
    Color space : YUV
    Chroma subsampling : 4:2:0
    Bit depth : 8 bits
    Scan type : Progressive
    Compression mode : Lossy
    Bits/(Pixel*Frame) : 0.259
    Stream size : 1.22 GiB (90%)
    Writing library : XviD 1.2.1 (UTC 2008-12-04)
    Audio
    ID : 1
    Format : AC-3
    Format/Info : Audio Coding 3
    Mode extension : CM (complete main)
    Format settings, Endianness : Big
    Codec ID : 2000
    Duration : 1h 41mn
    Bit rate mode : Constant
    Bit rate : 192 Kbps
    Channel(s) : 2 channels
    Channel positions : Front: L R
    Sampling rate : 48.0 KHz
    Compression mode : Lossy
    Stream size : 140 MiB (10%)
    Alignment : Split accross interleaves
    Interleave, duration : 42 ms (1.00 video frame)
    Interleave, preload duration : 500 ms

    Скриншот c названием фильма

    Скриншоты


    Скачать .torrent

    Скачать торрент-файл бесплатно и на максимальной скорости!

    Как скачивать? · Что такое торрент? · Рейтинг и ограничения

    !ВНИМАНИЕ!
    Сайт не распространяет и не хранит электронные версии произведений, а занимается лишь лишь предоставлением доступа к создаваемому пользователями каталогу ссылок на торрент-файлы, которые содержат только списки хеш-сумм, убедительная просьба с жалобами обращаться напрямую к пользователю. Файлы для обмена на трекере предоставлены пользователями сайта, и администрация не несёт ответственности за их содержание. Просьба не заливать файлы, защищенные авторскими правами, а также файлы нелегального содержания!


    _________________
    [Профиль] [ЛС]
    Показать сообщения:    
    Ответить на тему

    Текущее время: Сегодня, в 07:00

    Часовой пояс: GMT + 2



    Вы не можете начинать темы
    Вы не можете отвечать на сообщения
    Вы не можете редактировать свои сообщения
    Вы не можете удалять свои сообщения
    Вы не можете голосовать в опросах
    Вы не можете прикреплять файлы к сообщениям
    Вы не можете скачивать файлы