BitTorrentTracker PerecTracker.org
BitTorrentTracker PerecTracker.org
    
Регистрация  ·  Вход
 
 · 
Забыли пароль?

  • Токийская невеста / Tokyo Fiancée (Стефан Либерски) [2014, Франция, Канада, Бельгия, Комедия, Мелодрама, HDRip] Dub (iTunes)

    Ответить на тему
     
    Автор Сообщение

    Light

    Создавать темы 13-Сен-2015 21:43

           

    [Цитировать]

    Токийская невеста / Tokyo Fiancée
    Страна: Франция, Канада, Бельгия
    Жанр: Комедия, Мелодрама
    Год выпуска: 2014
    Продолжительность: 01:41:39
    Перевод: Профессиональный (дублированный) iTunes
    Cубтитры: нет
    Режиссер: Стефан Либерски
    В ролях: Полин Этьен, Тайчи Иноэ, Жюли ЛеБретон, Элис де Ланкесэ, Акими Ота, Хироки Кагеяма, Токио Ёкои, Хироми Асаи, Синносуке Касахара, Масаки Ватанабэ
    Описание: Амели полна надежд начать новую жизнь — она едет в Японию, страну своего детства, чтобы найти вдохновение и написать книгу. На новом месте девушка дает объявление о частных уроках французского языка, и ее первым и единственным учеником становится Ринри — очаровательный молодой человек, с которым они вскоре сблизятся. В трудностях перевода, в неловких вечеринках и спонтанных путешествиях Амели откроет для себя невиданную Японию и научится любить.
    Дата мировой премьеры: 7 сентября 2014
    Дата премьеры в России: 16 июля 2015, «ПРОвзгляд»

    Сэмпл: http://multi-up.com/1066119
    Качество видео: HDRip
    Формат видео: AVI
    Видео: Xvid, 720x304, ~1664 kb/s
    Аудио: AC3, 6 ch, 384 Кбит/сек, CBR

    MediaInfo

    Общее
    Полное имя : D:\FILMЬl\JR\Tokiiskaya.Newesta.HDRip.avi
    Формат : AVI
    Формат/Информация : Audio Video Interleave
    Размер файла : 1,46 Гбайт
    Продолжительность : 1 ч. 41 м.
    Общий поток : 2057 Кбит/сек
    Программа кодирования : VirtualDubMod 1.5.10.3 | www.virtualdub-fr.org || (build 2550/release)
    Библиотека кодирования : VirtualDubMod build 2550/release
    Видео
    Идентификатор : 0
    Формат : MPEG-4 Visual
    Профиль формата : Advanced Simple@L5
    Параметр BVOP формата : 2
    Параметр QPel формата : Нет
    Параметр GMC формата : Без точки перехода
    Параметр матрицы формата : Default (MPEG)
    Идентификатор кодека : XVID
    Идентификатор кодека/Подсказка : XviD
    Продолжительность : 1 ч. 41 м.
    Битрейт : 1664 Кбит/сек
    Ширина : 720 пикселей
    Высота : 304 пикселя
    Соотношение сторон : 2,35:1
    Частота кадров : 24,000 кадра/сек
    Цветовое пространство : YUV
    Субдискретизация насыщенности : 4:2:0
    Битовая глубина : 8 бит
    Тип развёртки : Прогрессивная
    Метод сжатия : С потерями
    Бит/(Пиксели*Кадры) : 0.317
    Размер потока : 1,18 Гбайт (81%)
    Библиотека кодирования : XviD 1.2.1 (UTC 2008-12-04)
    Аудио
    Идентификатор : 1
    Формат : AC-3
    Формат/Информация : Audio Coding 3
    Расширение режима : CM (complete main)
    Параметр Endianness формата : Big
    Идентификатор кодека : 2000
    Продолжительность : 1 ч. 41 м.
    Вид битрейта : Постоянный
    Битрейт : 384 Кбит/сек
    Каналы : 6 каналов
    Расположение каналов : Front: L C R, Side: L R, LFE
    Частота : 48,0 КГц
    Метод сжатия : С потерями
    Задержка видео : 880 мс.
    Размер потока : 279 Мбайт (19%)
    Выравнивание : Разделение по промежуткам
    Продолжительность промежутка : 42 мс. (1,00 видеокадр)
    Время предзагрузки промежутка : 500 мс.

    Скриншот c названием фильма

    Скриншоты

    Скачать .torrent

    Скачать торрент-файл бесплатно и на максимальной скорости!

    Как скачивать? · Что такое торрент? · Рейтинг и ограничения

    !ВНИМАНИЕ!
    Сайт не распространяет и не хранит электронные версии произведений, а занимается лишь лишь предоставлением доступа к создаваемому пользователями каталогу ссылок на торрент-файлы, которые содержат только списки хеш-сумм, убедительная просьба с жалобами обращаться напрямую к пользователю. Файлы для обмена на трекере предоставлены пользователями сайта, и администрация не несёт ответственности за их содержание. Просьба не заливать файлы, защищенные авторскими правами, а также файлы нелегального содержания!


    _________________
    [Профиль] [ЛС]
    Показать сообщения:    
    Ответить на тему

    Текущее время: Сегодня, в 06:47

    Часовой пояс: GMT + 2



    Вы не можете начинать темы
    Вы не можете отвечать на сообщения
    Вы не можете редактировать свои сообщения
    Вы не можете удалять свои сообщения
    Вы не можете голосовать в опросах
    Вы не можете прикреплять файлы к сообщениям
    Вы не можете скачивать файлы