BitTorrentTracker PerecTracker.org
BitTorrentTracker PerecTracker.org
    
Регистрация  ·  Вход
 
 · 
Забыли пароль?

  • Замок Принцессы / The Princess Castle (Диана Эшкенази / Diane Eskenazi) [1996, Мультфильм, семейный, сказка, DVB] Dub + Original Eng

    Ответить на тему
     
    Автор Сообщение

    rechyn

    Создавать темы 13-Сен-2015 17:36

           

    [Цитировать]

    Замок Принцессы / The Princess Castle
    Страна: США (GoldenFilms)
    Жанр: Мультфильм, семейный, сказка
    Продолжительность: 00:44:03
    Год выпуска: 1996
    Перевод: Профессиональный (дублированный)
    Русские субтитры: нет
    Режиссёр: Диана Эшкенази / Diane Eskenazi-Описание: Как и многие девочки ее возраста, Клэр мечтает о путешествиях в дальние страны. Однажды играя с младшей сестрой Кейтлин, девочки находят потайную дверь под лестницей, внутри находится магический медальон и приглашение посетить волшебное королевство. Там они встречают мальчика по имени Энтони, сына королевы Эммы, вместе с которым им предстоит спасти королевство от злых чар королевы Карлотты.-Качество: DVB
    Формат: TS
    Видео: AVC, 720x576, 25.000 fps, ~3000 Kbps
    Аудио 1: MPEG-1 Audio layer 2, 48.0 KHz, 1 ch, 96 Kbps (Русский)
    Аудио 2: MPEG-1 Audio layer 2, 48.0 KHz, 1 ch, 96 Kbps (English)
    Субтитры: отсутствуют
    Релиз:
    Благодарность xfiles за запись мультфильма.

    Подробные технические данные

    ОбщееИдентификатор : 1 (0x1)Полное имя : E:\MULTFILMS\Princess Castle 1996 GoldenFilms.tsФормат : MPEG-TSРазмер файла : 1,06 ГбайтПродолжительность : 44 м.Режим общего битрейта : ПеременныйОбщий поток : 3456 Кбит/секМаксимальный общий битрейт : 35,5 Мбит/сек
    ВидеоИдентификатор : 4113 (0x1011)Идентификатор меню : 1 (0x1)Формат : AVCФормат/Информация : Advanced Video CodecПрофиль формата : High@L3.0Параметр CABAC формата : ДаПараметр ReFrames формата : 4 кадраИдентификатор кодека : 27Продолжительность : 44 м.Битрейт : 3091 Кбит/секШирина : 720 пикселейВысота : 576 пикселейСоотношение сторон : 4:3Частота кадров : 25,000 кадров/секСтандарт вещания : PALЦветовое пространство : YUVСубдискретизация насыщенности : 4:2:0Битовая глубина : 8 битТип развёртки : ЧересстрочнаяПорядок развёртки : Нижнее поле первоеБит/(Пиксели*Кадры) : 0.298Размер потока : 974 Мбайт (89%)Основные цвета : BT.601 PALХарактеристики трансфера : BT.470 System B, BT.470 System GКоэффициенты матрицы : BT.601
    Аудио #1Идентификатор : 4352 (0x1100)Идентификатор меню : 1 (0x1)Формат : MPEG AudioВерсия формата : Version 1Профиль формата : Layer 2Идентификатор кодека : 4Продолжительность : 44 м.Вид битрейта : ПостоянныйБитрейт : 96,0 Кбит/секКаналы : 2 каналаЧастота : 48,0 КГцМетод сжатия : С потерямиРазмер потока : 30,2 Мбайт (3%)Язык : Russian
    Аудио #2Идентификатор : 4353 (0x1101)Идентификатор меню : 1 (0x1)Формат : MPEG AudioВерсия формата : Version 1Профиль формата : Layer 2Идентификатор кодека : 4Продолжительность : 44 м.Вид битрейта : ПостоянныйБитрейт : 96,0 Кбит/секКаналы : 2 каналаЧастота : 48,0 КГцМетод сжатия : С потерямиРазмер потока : 30,2 Мбайт (3%)Язык : English

    Скриншоты



    _________________
    [Профиль] [ЛС]
    Показать сообщения:    
    Ответить на тему

    Текущее время: Сегодня, в 04:36

    Часовой пояс: GMT + 2



    Вы не можете начинать темы
    Вы не можете отвечать на сообщения
    Вы не можете редактировать свои сообщения
    Вы не можете удалять свои сообщения
    Вы не можете голосовать в опросах
    Вы не можете прикреплять файлы к сообщениям
    Вы не можете скачивать файлы