BitTorrentTracker PerecTracker.org
BitTorrentTracker PerecTracker.org
    
Регистрация  ·  Вход
 
 · 
Забыли пароль?

  • Дядя / Dyadya / Uncle / Tog\'a (Рашид Маликов) [2014, Узбекистан, драма, комедия, HDRip] Sub Rus

    Ответить на тему
     
    Автор Сообщение

    Light

    Создавать темы 13-Сен-2015 17:36

           

    [Цитировать]

    Дядя / Dyadya / Uncle / Tog'a
    Страна: Узбекистан
    Жанр: драма, комедия
    Год выпуска: 2014
    Продолжительность: 01:21:47
    Перевод: Субтитры
    Cубтитры: русские
    Оригинальная аудиодорожка: узбекский
    Режиссер: Рашид Маликов
    В ролях: Борис Гафуров, Бобур Юлдашев, Али Чариев, Рано Шадиева, Нигора Каримбаева, Феруза Сабитова, Зарина Низамиддинова
    Описание: Бухара, восемьдесят девятый год. Советский Союз находится на грани развала. Тридцатипятилетний Джумаш, как и все жители города, живет своей жизнью, вне времени и пространства. Чтобы разбавить однообразность и серость каждого дня, на базаре устраиваются различные игры. Бараньи и петушиные бои, карты, ашички. Эти игры являются чуть ли не единственным развлечением жителей города.
    Санжару девять лет, он живет в столице со своей матерью. Третье лето подряд он проводит с дядей Джумашем и его женой. Родители Санжара в разводе, и мать считает, что ему не хватает мужского общения. Лето с Джумашем, по мнению матери, должно компенсировать эту нехватку.

    Кинопоиск
    Sample
    Качество видео: HDRip
    Формат видео: AVI
    Видео: 720x304 (2.37:1), 25 fps, XviD build 50 ~2352 kbps avg, 0.43 bit/pixel
    Аудио: 48 kHz, AC3 Dolby Digital, 2/0 (L,R) ch, ~192 kbps
    Формат субтитров: hardsub (неотключаемые)

    MediaInfo

    General
    Complete name : E:\1\Дядя 2014.avi
    Format : AVI
    Format/Info : Audio Video Interleave
    File size : 1.46 GiB
    Duration : 1h 21mn
    Overall bit rate : 2 555 Kbps
    Writing application : VirtualDubMod 1.5.10.3 | www.virtualdub-fr.org || (build 2550/release)
    Writing library : VirtualDubMod build 2550/release
    Video
    ID : 0
    Format : MPEG-4 Visual
    Format profile : Advanced Simple@L5
    Format settings, BVOP : 2
    Format settings, QPel : No
    Format settings, GMC : No warppoints
    Format settings, Matrix : Default (H.263)
    Codec ID : XVID
    Codec ID/Hint : XviD
    Duration : 1h 21mn
    Bit rate : 2 353 Kbps
    Width : 720 pixels
    Height : 304 pixels
    Display aspect ratio : 2.35:1
    Frame rate : 25.000 fps
    Color space : YUV
    Chroma subsampling : 4:2:0
    Bit depth : 8 bits
    Scan type : Progressive
    Compression mode : Lossy
    Bits/(Pixel*Frame) : 0.430
    Stream size : 1.34 GiB (92%)
    Writing library : XviD 1.2.1 (UTC 2008-12-04)
    Audio
    ID : 1
    Format : AC-3
    Format/Info : Audio Coding 3
    Mode extension : CM (complete main)
    Format settings, Endianness : Big
    Codec ID : 2000
    Duration : 1h 21mn
    Bit rate mode : Constant
    Bit rate : 192 Kbps
    Channel count : 2 channels
    Channel positions : Front: L R
    Sampling rate : 48.0 KHz
    Bit depth : 16 bits
    Compression mode : Lossy
    Stream size : 112 MiB (8%)
    Alignment : Split accross interleaves
    Interleave, duration : 40 ms (1.00 video frame)
    Interleave, preload duration : 500 ms

    Скриншот c названием фильма

    Скриншоты

    Скачать .torrent

    Скачать торрент-файл бесплатно и на максимальной скорости!

    Как скачивать? · Что такое торрент? · Рейтинг и ограничения

    !ВНИМАНИЕ!
    Сайт не распространяет и не хранит электронные версии произведений, а занимается лишь лишь предоставлением доступа к создаваемому пользователями каталогу ссылок на торрент-файлы, которые содержат только списки хеш-сумм, убедительная просьба с жалобами обращаться напрямую к пользователю. Файлы для обмена на трекере предоставлены пользователями сайта, и администрация не несёт ответственности за их содержание. Просьба не заливать файлы, защищенные авторскими правами, а также файлы нелегального содержания!


    _________________
    [Профиль] [ЛС]
    Показать сообщения:    
    Ответить на тему

    Текущее время: Сегодня, в 03:59

    Часовой пояс: GMT + 2



    Вы не можете начинать темы
    Вы не можете отвечать на сообщения
    Вы не можете редактировать свои сообщения
    Вы не можете удалять свои сообщения
    Вы не можете голосовать в опросах
    Вы не можете прикреплять файлы к сообщениям
    Вы не можете скачивать файлы