BitTorrentTracker PerecTracker.org
BitTorrentTracker PerecTracker.org
    
Регистрация  ·  Вход
 
 · 
Забыли пароль?

  • Свадьба (Исидор Анненский) [1944, Комедия, SATRip-AVC]

    Ответить на тему
     
    Автор Сообщение

    Light

    Создавать темы 11-Сен-2015 23:45

           

    [Цитировать]

    -Свадьба-Жанр: Комедия
    Год выпуска: 1944
    Продолжительность: 01:00:58-Режиссёр: Исидор Анненский-В ролях: Алексей Грибов, Фаина Раневская, Эраст Гарин, Зоя Фёдорова, Николай Коновалов, Михаил Яншин, Сергей Мартинсон, Вера Марецкая, Осип Абдулов, Николай Плотников, Сергей Блинников, Владимир Владиславский, Лев Свердлин-Описание: По одноименному водевилю А. П. Чехова.
    Мещане Жигаловы, у которых на выданье дочь Даша, к ужасу своему узнают, что чиновник Апломбов, все лето ухаживавший за Дашей, ежедневно обедавший у них и зарекомендовавший себя женихом, жениться вовсе не собирается.-Доп. информация:

    Производство: Тбилисская к/ст, СССР, 1944 г.
    Сценарист: Исидор Анненский
    Оператор: Юрий Екельчик
    Композитор: Валерий Желобинский
    Художник: Семён Мандель-Семпл: https://yadi.sk/i/VCGp5PFHj2q5s-Качество видео: SATRip-AVC
    Формат видео: MKV
    Видео кодек: H.264
    Аудио кодек: AC3
    Видео: 720x512 (1.40:1), 25 fps, ~2320 kbps
    Аудио: 48 kHz, AC3 Dolby Digital, 2/0 (L,R) ch, ~192 kbps

    MediaInfo

    General
    Unique ID : 234520224674485957779691012917591909182 (0xB06EF3CBAB6AF84B9B3DE66ACEB1A33E)
    Complete name : C:\Torrent\Свадьба.1944.SATRip-AVC by Dmitrio7197\Свадьба.1944.SATRip-AVC by Dmitrio7197.mkv
    Format : Matroska
    Format version : Version 2
    File size : 1.07 GiB
    Duration : 1h 0mn
    Overall bit rate : 2 514 Kbps
    Encoded date : UTC 2015-09-10 20:16:14
    Writing application : mkvmerge v6.1.0 ('Old Devil') built on Mar 4 2013 09:10:42
    Writing library : libebml v1.3.0 + libmatroska v1.4.0
    Video
    ID : 1
    Format : AVC
    Format/Info : Advanced Video Codec
    Format profile : High@L4.1
    Format settings, CABAC : Yes
    Format settings, ReFrames : 8 frames
    Codec ID : V_MPEG4/ISO/AVC
    Duration : 1h 0mn
    Bit rate : 2 320 Kbps
    Width : 720 pixels
    Height : 512 pixels
    Display aspect ratio : 1.406
    Frame rate mode : Constant
    Frame rate : 25.000 fps
    Color space : YUV
    Chroma subsampling : 4:2:0
    Bit depth : 8 bits
    Scan type : Progressive
    Bits/(Pixel*Frame) : 0.252
    Stream size : 991 MiB (90%)
    Writing library : x264 core 130 r2273 b3065e6
    Encoding settings : cabac=1 / ref=8 / deblock=1:0:0 / analyse=0x3:0x113 / me=umh / subme=11 / psy=1 / psy_rd=1.00:0.00 / mixed_ref=1 / me_range=26 / chroma_me=1 / trellis=2 / 8x8dct=1 / cqm=0 / deadzone=21,11 / fast_pskip=1 / chroma_qp_offset=-2 / threads=6 / lookahead_threads=1 / sliced_threads=0 / nr=0 / decimate=0 / interlaced=0 / bluray_compat=0 / constrained_intra=0 / bframes=8 / b_pyramid=2 / b_adapt=1 / b_bias=0 / direct=3 / weightb=1 / open_gop=0 / weightp=2 / keyint=250 / keyint_min=25 / scenecut=40 / intra_refresh=0 / rc_lookahead=40 / rc=2pass / mbtree=1 / bitrate=2320 / ratetol=1.0 / qcomp=0.60 / qpmin=0 / qpmax=69 / qpstep=4 / cplxblur=20.0 / qblur=0.5 / ip_ratio=1.40 / aq=1:1.00
    Default : Yes
    Forced : No
    Audio
    ID : 2
    Format : AC-3
    Format/Info : Audio Coding 3
    Mode extension : CM (complete main)
    Format settings, Endianness : Big
    Codec ID : A_AC3
    Duration : 1h 0mn
    Bit rate mode : Constant
    Bit rate : 192 Kbps
    Channel(s) : 2 channels
    Channel positions : Front: L R
    Sampling rate : 48.0 KHz
    Bit depth : 16 bits
    Compression mode : Lossy
    Stream size : 83.7 MiB (8%)
    Default : Yes
    Forced : No

    Скриншоты

    -
    Скачать .torrent

    Скачать торрент-файл бесплатно и на максимальной скорости!

    Как скачивать? · Что такое торрент? · Рейтинг и ограничения

    !ВНИМАНИЕ!
    Сайт не распространяет и не хранит электронные версии произведений, а занимается лишь лишь предоставлением доступа к создаваемому пользователями каталогу ссылок на торрент-файлы, которые содержат только списки хеш-сумм, убедительная просьба с жалобами обращаться напрямую к пользователю. Файлы для обмена на трекере предоставлены пользователями сайта, и администрация не несёт ответственности за их содержание. Просьба не заливать файлы, защищенные авторскими правами, а также файлы нелегального содержания!


    _________________
    [Профиль] [ЛС]
    Показать сообщения:    
    Ответить на тему

    Текущее время: Сегодня, в 22:18

    Часовой пояс: GMT + 2



    Вы не можете начинать темы
    Вы не можете отвечать на сообщения
    Вы не можете редактировать свои сообщения
    Вы не можете удалять свои сообщения
    Вы не можете голосовать в опросах
    Вы не можете прикреплять файлы к сообщениям
    Вы не можете скачивать файлы