BitTorrentTracker PerecTracker.org
BitTorrentTracker PerecTracker.org
    
Регистрация  ·  Вход
 
 · 
Забыли пароль?

  • Она его обожает / Elle l\'adore (Жанна Эрри / Jeanne Herry) [2014, Франция, Драма, детектив, HDRip] MVO + Original Fre

    Ответить на тему
     
    Автор Сообщение

    Light

    Создавать темы 11-Сен-2015 11:09

           

    [Цитировать]

    Она его обожает / Elle l'adoreСтрана: Франция
    Жанр: Драма, детектив
    Год выпуска: 2014
    Продолжительность: 01:44:21
    Перевод: Профессиональный (многоголосый закадровый) - канал «Киноклуб»
    Cубтитры: нет
    Оригинальная аудиодорожка: французская
    Режиссер: Жанна Эрри / Jeanne Herry
    В ролях: Сандрин Киберлэн, Лоран Лафитт, Паскаль Демолон, Оливия Коте, Николас Бридет, Себастьен Кнафо, Мюриэль Майетт, Бенжамин Лаверн, Луи Лесаж, Элен Александридис.
    Описание: Мюриель престижный и знаменитый косметолог. Мама двух прекрасных детишек и самая лучшая подруга для своих знакомых девушек. Она является большой поклонницей популярного певца и красавчика Венсана Лакруа. Однажды он постучался к ней в дверь и попросил о помощи, но помощи весьма необычного свойства. Согласится ли Мюриель помочь своему кумиру?

    Доп. информация:
    Исходник видео - BDRip 1080p
    Запись русской аудиодорожки с телеканала «КиноКлуб» - xfiles
    DVDRip и синхронизация звука - Arle-kino

    Качество видео: HDRip
    Формат видео: AVI
    Видео: 720x304 (2.37:1), 24.000 fps, XviD build 50 ~2159 kbps avg, 0.41 bit/pixel
    Аудио 1: 48 kHz, AC3 Dolby Digital, 3/2 (L,C,R,l,r) + LFE ch, ~384 kbps - Rus
    Аудио 2: 48 kHz, AC3 Dolby Digital, 3/2 (L,C,R,l,r) + LFE ch, ~384 kbps - Fre

    MediaInfo

    General
    Complete name : D:\Public\Elle.l'adore.(2014).HDRip.Rus-Fre.avi
    Format : AVI
    Format/Info : Audio Video Interleave
    Format profile : OpenDML
    File size : 2.14 GiB
    Duration : 1h 44mn
    Overall bit rate : 2 935 Kbps
    Writing application : VirtualDubMod 1.5.10.2 (build 2542/release)
    Writing library : VirtualDubMod build 2542/release
    Video
    ID : 0
    Format : MPEG-4 Visual
    Format profile : Advanced Simple@L5
    Format settings, BVOP : 1
    Format settings, QPel : No
    Format settings, GMC : No warppoints
    Format settings, Matrix : Default (MPEG)
    Codec ID : XVID
    Codec ID/Hint : XviD
    Duration : 1h 44mn
    Bit rate : 2 149 Kbps
    Width : 720 pixels
    Height : 304 pixels
    Display aspect ratio : 2.35:1
    Frame rate : 24.000 fps
    Color space : YUV
    Chroma subsampling : 4:2:0
    Bit depth : 8 bits
    Scan type : Progressive
    Compression mode : Lossy
    Bits/(Pixel*Frame) : 0.409
    Stream size : 1.57 GiB (73%)
    Writing library : XviD 1.2.1 (UTC 2008-12-04)
    Audio #1
    ID : 1
    Format : AC-3
    Format/Info : Audio Coding 3
    Mode extension : CM (complete main)
    Codec ID : 2000
    Duration : 1h 44mn
    Bit rate mode : Constant
    Bit rate : 384 Kbps
    Channel(s) : 6 channels
    Channel positions : Front: L C R, Side: L R, LFE
    Sampling rate : 48.0 KHz
    Bit depth : 16 bits
    Compression mode : Lossy
    Stream size : 287 MiB (13%)
    Alignment : Split accross interleaves
    Interleave, duration : 42 ms (1.00 video frame)
    Interleave, preload duration : 500 ms
    Title : Rus
    Audio #2
    ID : 2
    Format : AC-3
    Format/Info : Audio Coding 3
    Mode extension : CM (complete main)
    Codec ID : 2000
    Duration : 1h 44mn
    Bit rate mode : Constant
    Bit rate : 384 Kbps
    Channel(s) : 6 channels
    Channel positions : Front: L C R, Side: L R, LFE
    Sampling rate : 48.0 KHz
    Bit depth : 16 bits
    Compression mode : Lossy
    Stream size : 287 MiB (13%)
    Alignment : Split accross interleaves
    Interleave, duration : 42 ms (1.00 video frame)
    Interleave, preload duration : 500 ms
    Title : Fre

    Скриншот c названием фильма

    Скриншоты

    Скачать .torrent

    Скачать торрент-файл бесплатно и на максимальной скорости!

    Как скачивать? · Что такое торрент? · Рейтинг и ограничения

    !ВНИМАНИЕ!
    Сайт не распространяет и не хранит электронные версии произведений, а занимается лишь лишь предоставлением доступа к создаваемому пользователями каталогу ссылок на торрент-файлы, которые содержат только списки хеш-сумм, убедительная просьба с жалобами обращаться напрямую к пользователю. Файлы для обмена на трекере предоставлены пользователями сайта, и администрация не несёт ответственности за их содержание. Просьба не заливать файлы, защищенные авторскими правами, а также файлы нелегального содержания!


    _________________
    [Профиль] [ЛС]
    Показать сообщения:    
    Ответить на тему

    Текущее время: Сегодня, в 20:36

    Часовой пояс: GMT + 2



    Вы не можете начинать темы
    Вы не можете отвечать на сообщения
    Вы не можете редактировать свои сообщения
    Вы не можете удалять свои сообщения
    Вы не можете голосовать в опросах
    Вы не можете прикреплять файлы к сообщениям
    Вы не можете скачивать файлы