Register  ·  Log in
Forgot password?

  • Мистер Джонс / Mr. Jones (Карл Мюллер / Karl Mueller) [2013, США, Ужасы, Триллер, Драма, DVDRip] VO (Васька Куролесов)

    Reply to topic
    Author Message


    Post 11-Sep-2015 12:09



    Мистер Джонс / Mr. Jones
    Страна: США
    Жанр: Ужасы, Триллер, Драма
    Год выпуска: 2013
    Продолжительность: 01:23:48
    Перевод: Одноголосый закадровый Васька Куролесов
    Cубтитры: нет
    Оригинальная аудиодорожка: нет
    Режиссер: Карл Мюллер / Karl Mueller
    В ролях: Джон Фостер, Сара Джонс, Марк Стегер, Фаран Таир, Стэнли Херман, Этан Сойер, Джордан Альберт, Дэвид Кленнон, Джессика Даудесвелл, Дайан Нил
    Описание: Скотт и Пенни поселились в домике за городом, чтобы бежать от шумной и трудной городской жизни. На многие мили вокруг у них теперь всего лишь один сосед — странный человек, который появляется только ночью.

    Качество видео: DVDRip
    Формат видео: AVI
    Видео: 720x400; ~1375 kbps; 23.976 fps;
    Аудио: AC-3; ~192 kbps, 48000Hz, 2 ch


    Complete name : G:\Mr .Jones 2013 XviD_KypoJIecoB.avi
    Format : AVI
    Format/Info : Audio Video Interleave
    File size : 945 MiB
    Duration : 1h 23mn
    Overall bit rate : 1 576 Kbps
    ID : 0
    Format : MPEG-4 Visual
    Format profile : Advanced Simple@L5
    Format settings, BVOP : 2
    Format settings, QPel : No
    Format settings, GMC : No warppoints
    Format settings, Matrix : Default (H.263)
    Codec ID : XVID
    Codec ID/Hint : XviD
    Duration : 1h 23mn
    Bit rate : 1 375 Kbps
    Width : 720 pixels
    Height : 400 pixels
    Display aspect ratio : 16:9
    Frame rate : 23.976 fps
    Color space : YUV
    Chroma subsampling : 4:2:0
    Bit depth : 8 bits
    Scan type : Progressive
    Compression mode : Lossy
    Bits/(Pixel*Frame) : 0.199
    Stream size : 824 MiB (87%)
    Writing library : XviD 64
    ID : 1
    Format : AC-3
    Format/Info : Audio Coding 3
    Mode extension : CM (complete main)
    Format settings, Endianness : Big
    Codec ID : 2000
    Duration : 1h 23mn
    Bit rate mode : Constant
    Bit rate : 192 Kbps
    Channel(s) : 2 channels
    Channel positions : Front: L R
    Sampling rate : 48.0 KHz
    Compression mode : Lossy
    Stream size : 115 MiB (12%)
    Alignment : Split accross interleaves
    Interleave, duration : 42 ms (1.00 video frame)
    Interleave, preload duration : 500 ms

    Скриншот c названием фильма


    Download .torrent

    Download free and at maximum speed!

    How to Download? · What is a torrent? · Ratings and Limitations

    The site does not extend and does not store electronic(digital) versions of products, and only gives access to a reference catalogue created by users on torrent-files which contain only lists of the hash-sums, the earnest entreaty, with complaints(abuse) to access directly to the user. Files for an exchange on tracker are given by users of a site, and the administration does not bear the responsibility for their maintenance. The request to not fill in the files protected by copyrights, and also files of the illegal maintenance!

    [Profile] [PM]
    Display posts from previous:    
    Reply to topic

    The time now is: Today 12:06

    All times are GMT + 3 Hours

    You cannot post new topics in this forum
    You cannot reply to topics in this forum
    You cannot edit your posts in this forum
    You cannot delete your posts in this forum
    You cannot vote in polls in this forum
    You cannot attach files in this forum
    You cannot download files in this forum